#TITLE:Silent Hill (3rd christmas mix);
#SUBTITLE:;
#ARTIST:THOMAS HOWARD;
#TITLETRANSLIT:;
#SUBTITLETRANSLIT:;
#ARTISTTRANSLIT:;
#GENRE:;
#CREDIT:;
#MUSIC:Silent Hill (3rd christmas mix).mp3;
#BANNER:Silent Hill (3rd christmas mix).png;
#BACKGROUND:Silent Hill (3rd christmas mix)-bg.png;
#CDTITLE:;
#SAMPLESTART:0.000;
#SAMPLELENGTH:0.000;
#SELECTABLE:YES;
#OFFSET:-0.047;
#BPMS:0.000=125.000;
#STOPS:;
#DISPLAYBPM:125.000;
#BGCHANGES:;
#FGCHANGES:;

//--------------- dance-single - HellKiteChaos ----------------
#NOTES:
     dance-single:
     HellKiteChaos:
     Hard:
     10:
     0,0,0,0,0:
0000
0000
0000
0000
,
0000
0000
0000
0000
,
0000
0000
0000
0000
,
0000
0000
0000
0000
0000
0000
0000
0020
,
0000
0000
0000
0000
,
0030
1000
0000
0001
0000
0100
0000
0001
,
0000
1000
0000
0010
0000
1000
0000
0001
,
0000
0010
0000
0001
0000
1000
0000
0100
,
0010
0100
0010
0100
0010
0100
1001
0000
,
1000
0001
0200
0000
0301
1000
0200
0000
,
0310
0001
1000
0100
0010
0001
0200
0000
,
0310
1000
0002
0000
0103
0001
2000
0000
,
3010
1000
0001
1000
0010
0100
0001
0010
,
0100
0100
2000
0000
3001
0001
0020
0000
,
0130
1000
0001
1000
0100
0010
0001
1000
,
0010
0010
0200
0000
0301
0001
2000
0000
,
3010
0100
0001
1000
0010
0100
0001
1000
,
0020
0000
0000
1030
2000
0000
3200
0000
,
0320
0000
0000
0031
0002
0000
0203
0000
,
0310
0000
1000
0000
0010
0000
0100
0000
0010
0000
1000
0010
1000
0000
0001
0000
,
0100
0000
0001
0000
0100
0000
0010
0000
0100
0000
0001
0100
0001
0000
1000
0000
,
0100
1000
0100
0000
0010
0001
0010
0000
,
0100
1000
0001
1000
0100
0010
0001
0000
,
1000
0010
0200
0000
0301
0100
0020
0000
,
1030
0001
0100
0010
0100
0001
1000
0001
,
0100
0100
0100
0100
,
0100
0000
0100
0000
0100
0000
0100
0001
,
0010
0010
0010
0010
,
0010
0100
1000
0100
0010
0001
0100
0010
,
1000
0000
0001
0000
0100
0100
0100
0001
,
1000
0000
0100
0000
0010
0010
0010
0001
,
1000
0000
0001
0000
0100
0100
0100
0000
,
0010
0100
0001
1000
0010
0100
0001
0000
,
1000
0000
0100
0000
1000
0000
0001
1000
0001
0000
1000
0000
0010
0000
0000
0000
,
0100
0000
0001
0000
1000
0000
0001
1000
0001
0000
0010
0000
0100
0000
0000
0000
,
2100
0000
0000
3001
0100
0010
0100
0001
,
0102
0000
2003
0000
3010
0010
0010
1000
,
0002
0000
0203
0000
0320
0000
1030
0100
,
0020
0000
0032
0000
2003
0000
3100
1000
,
0001
0100
0100
0000
0001
0010
0010
0000
,
0100
0100
1000
0001
1000
0010
0100
0000
,
0001
0000
0100
0000
0001
0000
1000
0010
1000
0000
0010
0000
0100
0000
0000
0000
,
0001
0000
1000
0000
0001
0000
0010
0100
0010
0000
0100
0000
1000
0000
0000
0000
,
0200
0010
0010
0000
1000
1000
1300
2000
,
0000
0001
0000
0001
0000
3001
0100
0010
,
1000
0100
1000
0010
0100
0010
1000
0000
,
0001
0010
0100
0010
0001
0100
0010
0000
,
1000
0100
0010
0001
1000
0100
0010
0001
,
1000
0010
0100
0001
1000
0010
0100
0100
,
0000
0220
0000
0030
,
0300
0000
0000
0000
;

//--------------- dance-single - HellKiteChaos ----------------
#NOTES:
     dance-single:
     HellKiteChaos:
     Challenge:
     12:
     0,0,0,0,0:
0000
0000
0000
0000
,
0000
0000
0000
0000
,
0000
0000
0000
0000
,
0000
0000
0000
0000
0000
0000
0000
0002
,
1000
1000
0000
0100
0100
1000
1003
0001
,
0100
0000
0100
0000
0001
0000
0001
0000
1000
0000
0010
1000
0001
0000
1000
0000
,
0100
0000
0100
0000
0010
0000
0010
0000
0001
0000
1000
0001
0010
0000
0100
0000
,
1000
0000
1000
0000
0001
0000
0001
0000
0100
0000
0010
1000
0001
0000
0001
0000
,
0100
0100
0010
0100
0100
0100
0110
0000
,
0100
0000
0001
0100
0000
0000
0001
0000
1000
0000
0100
1000
0000
0000
0001
0000
,
0010
0000
0100
0010
0000
0000
0100
0000
0100
0000
0010
0000
0001
0000
0100
0000
,
0010
0000
1000
0010
0000
0000
0100
0000
0100
0000
0001
1000
0000
0000
0010
0000
,
0010
0000
1000
0100
0000
0000
1000
0000
1000
0000
0001
0000
0100
0000
0001
0000
,
1000
0000
0010
1000
0000
0000
0001
0000
0001
0000
0100
0001
0000
0000
1000
0000
,
1000
0000
0100
1000
0000
0000
0001
0000
0001
0000
0010
0000
0001
0000
1000
0000
,
0010
0000
0100
0010
0000
0010
0100
0000
0001
0000
1000
0001
0000
0001
1000
0000
,
0001
0100
0001
0000
1000
0001
1000
0000
0010
0000
1000
0010
1000
0000
0001
0000
,
0102
0000
0000
2000
0003
0000
3002
0000
,
0203
0000
0000
0020
0300
0000
2030
0000
,
3001
0000
1000
0000
0100
0000
1000
0001
0100
0000
0001
0000
1000
0000
0001
0000
,
0010
0000
0001
0000
1000
0000
0001
1000
0010
0000
1000
0000
0001
0000
0100
0000
,
0010
0100
0100
0010
0100
0001
0100
0010
,
1000
1000
1000
0001
1000
0100
1000
0001
,
0010
0100
0110
0000
0100
1000
1001
0000
,
0001
0100
0010
1000
0001
0010
0100
1000
,
0001
0001
0001
0100
0001
0000
1001
0000
,
1000
1000
1000
0100
1000
1000
0001
1000
,
0001
0001
0001
0010
0001
0000
1001
0000
,
0001
0100
1000
0100
0001
0010
1000
0010
,
0001
0000
1000
0100
0100
1000
0001
0100
,
0010
0000
0100
0100
0010
1000
0001
0010
,
0100
0000
1000
0100
1000
0100
0010
0001
,
1000
0001
0100
0010
1000
0100
0010
0001
,
1000
0000
0010
0000
1000
0000
0001
1000
0100
0000
1000
0000
0001
0000
0001
0000
,
1000
0000
0100
0000
1000
0000
0001
1000
0010
0000
1000
0000
0001
0000
0001
0000
,
0100
0010
0100
0000
0001
1000
0001
0000
,
0100
0010
1000
0001
0100
0010
1000
0100
,
1000
0000
1000
0000
1000
0000
0010
1000
0001
0000
0100
0000
0200
0000
0000
0000
,
0301
0000
0001
0000
0001
0000
1000
0001
0010
0000
0100
0000
0200
0000
0000
0000
,
1300
0000
0100
0000
0001
0000
0100
0010
0100
0000
1000
0000
0001
0000
0100
0010
,
0100
0001
1000
0010
0100
0001
1000
0010
,
0100
0000
0100
0000
0001
0000
1000
0001
1000
0001
1000
0000
0200
0000
0000
0000
,
0310
0000
0100
0000
0010
0000
0001
1000
0001
1000
0001
0000
0200
0000
0000
0000
,
0310
0000
1000
0000
0001
0000
0100
0001
0100
0000
0010
1000
0010
0000
0100
0000
,
0020
0000
0000
0000
0130
0000
0001
0000
1000
0000
0001
1000
0001
0000
1000
0000
,
0100
0100
1000
0000
0001
0001
0010
0001
,
1000
1000
0010
0100
0010
0010
1001
0000
,
1000
0010
2000
0000
3001
0010
0002
0000
,
1003
0100
1000
0001
0100
0010
1000
0100
,
0000
0220
0000
0030
,
0300
0000
0000
0000
;

//--------------- dance-double - HellKiteChaos ----------------
#NOTES:
     dance-double:
     HellKiteChaos:
     Challenge:
     12:
     0,0,0,0,0:
00000000
00000000
00000000
00000000
,
00000000
00000000
00000000
00000000
,
00000000
00000000
00000000
00000000
,
00000000
00000000
00000000
00000000
00000000
00000000
00000000
00002000
,
00010000
00010000
00010000
00010000
,
00013000
00001000
00000100
00001000
00010000
01000000
00010000
00001000
,
00000010
00001000
00010000
00100000
00010000
00001000
00010000
01000000
,
10000000
00100000
10000000
01000000
00010000
00001000
00000010
00000001
,
00000100
00000010
00000010
00000010
00000010
00000010
00000010
00000010
,
00001000
00000000
00000001
00000100
00000010
00000000
00001000
00000000
00000001
00000000
00000000
00000000
00000100
00000000
00000010
00000000
,
00010000
00000000
00000010
00010000
00001000
00000000
00100000
00000000
00010000
00000000
10000000
00000000
01000000
00000000
00000000
00000000
,
00100000
00000000
00010000
10000000
01000000
00000000
00100000
00000000
00010000
00000000
01000000
00000000
00100000
00000000
10000000
00000000
,
01000000
00000000
00100000
00001000
00010000
00000000
00001000
00000000
00010000
00000000
00000100
00000000
00000010
00000000
00000001
00000000
,
00000021
00000000
00000100
00000000
00000001
00000000
00000130
00001000
,
00001002
00000000
00000100
00000000
00001000
00000000
00000103
00000010
,
00001000
00000100
00010000
00001000
00100000
00010000
10000000
01000000
,
00100000
00000000
00100000
00000000
00010000
00000000
00010000
00000000
10000000
01000000
10000000
01000000
00100000
00010000
10000000
01000000
,
00200000
00000000
00000000
00010000
00320000
00000000
02030000
00000000
,
03002000
00000000
00000000
00010000
00023000
00000000
00030200
00000000
,
00000310
00000000
00000001
00000000
00001000
00000000
00000100
00000010
00000001
00000000
00001000
00000000
00000100
00000000
00000000
00000000
,
00000010
00000000
00000100
00000000
00010000
00000000
00001000
00010000
00001000
00000000
00100000
00000000
00010000
00000000
10000000
00000000
,
00200000
00000000
01000000
00000000
10300000
00010000
01000000
00001000
,
00200000
00000000
00001000
00000000
00010000
00000000
00301000
00000100
,
00000010
00001000
00000001
00000010
00001000
00000001
00000100
00001000
,
00000010
00000010
00010000
00010000
00001000
00100000
00010000
10000000
,
02000000
03020000
00032000
00003020
,
00000032
00000203
00002300
00023000
,
00230000
20300000
32000000
03020000
,
02030000
23000000
30020000
02030000
,
03100000
10000000
00010000
01000000
00100000
01000000
00100000
01100000
,
01000000
00010000
10000000
01000000
00010000
00001000
00010000
00011000
,
00001000
00010000
00000100
00000010
00000001
00000010
00001000
00001010
,
00000010
00000001
00000100
00000010
00001000
00000001
00000100
00001000
,
00010000
00001000
00010000
00001000
00000100
00001000
00010000
00000000
,
00001000
00010000
00001000
00010000
01000000
00010000
00001000
00000000
,
00010000
00000010
00001000
00000100
00000100
00000010
00000100
00000100
,
00001100
00000200
00020300
00032000
,
00103000
00000000
00010000
00000000
00100000
00000000
10000000
00000000
00100000
00000000
00010000
00100000
00010000
00000000
10000000
00000000
,
00010000
00000000
01000000
00000000
10000000
00000000
01000000
00000000
00010000
00000000
10000000
00100000
10000000
00000000
00010000
00000000
,
01000000
00100000
00010000
00100000
01000000
01000000
00001000
00010000
,
00001000
00010000
00001000
00010000
00001000
00001000
00010000
00010000
,
00001000
00000100
00001000
00010000
01000000
00010000
00001000
00000000
,
00010000
00001000
00000010
00001000
00010000
00100000
10000000
00000000
,
02000000
00000000
00100000
00100000
00100000
00000000
00000000
00200000
,
00000000
00000000
03300000
01100000
,
00100000
01000000
00010000
00001000
00000100
00000010
00000001
00000010
,
00001000
00000001
00000100
00000010
00010000
00001000
00010000
00000000
,
00001000
00000100
00000001
00000010
00001000
00010000
01000000
10000000
,
00100000
00010000
00100000
10000000
01000000
00100000
00010000
10000000
,
00000000
20020000
00000000
00030000
,
30000000
00000000
00000000
00000000
;
