#TITLE:SO FABULOUS SO FIERCE (FREAK OUT);
#SUBTITLE:;
#ARTIST:THUDERPUSS feat. JOCELYN ENRIQUEZ;
#TITLETRANSLIT:;
#SUBTITLETRANSLIT:;
#ARTISTTRANSLIT:;
#GENRE:;
#CREDIT:;
#MUSIC:SO FABULOUS SO FIERCE (FREAK OUT).mp3;
#BANNER:SO FABULOUS SO FIERCE (FREAK OUT).png;
#BACKGROUND:SO FABULOUS SO FIERCE (FREAK OUT)-bg.png;
#CDTITLE:;
#SAMPLESTART:0.000;
#SAMPLELENGTH:0.000;
#SELECTABLE:YES;
#OFFSET:-0.039;
#BPMS:0.000=128.000;
#STOPS:132.000=0.469
,132.500=0.469
,133.000=0.469
,133.500=0.469
,136.000=0.469
,136.500=0.469
,137.000=0.469
,137.500=0.469
;
#DISPLAYBPM:128.000;
#BGCHANGES:;
#FGCHANGES:;

//--------------- dance-single - HellKiteChaos ----------------
#NOTES:
     dance-single:
     HellKiteChaos:
     Challenge:
     13:
     0,0,0,0,0:
0000
0000
0000
0000
0000
0000
0000
1000
,
0001
0100
0001
0100
0001
0000
1000
0001
1000
0000
0100
0000
1000
0000
0001
0000
,
0010
0001
0010
0001
0010
0000
0100
0000
0010
0000
0100
0000
2000
0000
0001
0000
,
3002
0000
0103
0000
0100
0000
0010
1000
0010
0000
0100
0000
0100
0000
0001
0000
,
1000
0001
1000
0001
1000
0000
0100
0000
0120
0000
0000
0000
0031
0000
0001
0000
,
1000
0100
1000
0010
1000
0100
1000
0010
,
1000
0100
0010
0001
0100
0010
1000
0001
,
0100
0001
0010
0001
0100
0001
0010
0011
,
0000
1100
0000
1010
0000
0101
0100
0001
,
1000
0100
1000
0010
0100
0010
1000
0100
,
0010
0100
1000
0010
0100
0001
0010
0100
,
1000
0001
1000
0100
0010
0100
0010
0011
,
0000
1001
0000
1100
0000
0110
0010
0100
,
1000
0002
0000
2003
0000
3010
0100
0001
,
1000
0002
0000
2003
0000
3100
0010
0001
,
1000
0010
0100
0001
1000
0010
0100
0001
,
0000
1001
0000
2001
0000
3002
0000
1003
,
0001
1000
0001
1000
0001
0000
0010
0001
0100
0000
0001
0000
1000
0000
0001
0000
,
1000
0001
1000
0001
1000
0000
0010
1000
0100
0000
0010
0000
0100
0000
0010
0000
,
0001
1000
0001
1000
0001
0000
0100
0001
0010
0000
0001
0000
1000
0000
0010
0000
,
1000
0001
1000
0001
1000
0000
0100
1000
0010
0000
0100
0000
0010
0000
0100
0000
,
0001
1000
0001
1000
0001
0000
1000
0100
0010
0000
0001
0000
1000
0000
0001
0000
,
1000
0001
1000
0001
1000
0000
0001
0100
0010
0000
1000
0000
0001
0000
1000
0000
,
0001
0100
0001
1000
0001
0000
1000
0001
1000
0000
0100
0000
1000
0000
0001
0000
,
0100
0001
1000
0010
0100
0000
0001
0000
1000
0000
0010
0000
0100
0000
0001
0000
,
1000
0000
0001
0000
0100
0000
0010
1000
0001
1000
0001
0000
0100
0000
0001
1000
,
0100
1000
0001
1000
0002
0203
0302
2003
,
3100
0000
0100
0000
0010
0001
0010
0001
1000
0000
0001
0000
0100
0001
0100
0001
,
1000
1000
0010
0010
0200
0302
0203
0302
,
1003
1000
0100
0010
0110
0001
1000
0100
,
0010
0010
0001
1000
1001
0001
1000
0001
,
0100
0100
0010
0010
0100
0100
0010
0010
,
0100
0001
1000
0010
0100
0001
1000
0001
,
0101
1100
0101
1100
0001
1000
0001
1000
,
0011
1010
0011
1010
1100
0000
0011
0000
,
2002
0000
0000
3003
,
0001
0000
1000
0000
0010
0100
0010
0100
0020
0000
0000
0000
0000
0000
0130
0000
,
0001
1000
0001
1000
0001
0000
1000
0100
0010
0000
0100
0000
0010
0000
0001
0000
,
1000
0001
1000
0001
1000
0000
0001
0100
0010
0000
0100
0000
0010
0000
1000
0000
,
0001
1000
0001
1000
0001
0000
0010
0100
1000
0000
0001
0000
1000
0000
0001
0000
,
1000
0001
1000
0001
1000
0000
0010
0100
0001
0000
1000
0000
0010
0000
0100
0000
,
0001
0100
0101
0000
1000
0010
1010
0000
,
1000
0100
1000
0010
0100
0001
0010
0001
,
0101
0000
0000
1000
1100
0000
0101
1001
,
0000
0000
0000
0110
0110
2002
0000
0000
,
3003
0000
0000
0000
;

//--------------- dance-double - HellKiteChaos ----------------
#NOTES:
     dance-double:
     HellKiteChaos:
     Challenge:
     13:
     0,0,0,0,0:
00000000
00000000
00000000
00000000
00000000
00000000
00000000
00001000
,
00010000
00001000
00000000
00100000
00010000
00000000
10000000
00010000
20000000
00000000
31000000
00000000
00020000
00000000
01030000
00000000
,
10000000
00010000
10000000
00010000
01000000
00000000
00100000
00000000
02000000
00000000
03001000
00000000
02000000
00000000
03100000
00000000
,
01000000
00010000
00100000
01000000
00100000
00001000
00010000
00000000
,
00001000
00010000
00001000
00010000
00001000
00000000
00010000
00000000
00020200
00000000
00000000
00000000
00030300
00000000
00000100
00000000
,
00000010
00000001
00000100
00000001
00000010
00000001
00000100
00000001
,
00001000
00000100
00000010
00000001
00000100
00001000
00010000
00100000
,
00100000
10000000
10000000
01000000
00000000
00100000
00010000
01000000
,
00000000
10100000
00000000
01010000
00000000
01001000
00000000
00011000
,
00010000
00000100
00000010
00000100
00010000
00001000
00010000
01000000
,
00010000
00001000
00010000
01000000
00010000
00001000
00010000
00002000
,
00000000
00203000
00000000
01300000
01000000
10000000
00100000
02000000
,
00000000
03002000
00000000
00020000
00000000
00000000
00033000
00011000
,
00011000
00001000
00000100
00000010
00000100
00001000
00010000
00001000
,
00001000
00010000
01000000
00100000
01000000
00010000
00001000
00020000
,
00000000
00030020
00000000
00002030
00000000
00003100
00000100
00000110
,
00000000
00000011
00000000
00000101
00000000
00001100
00000000
00000100
,
00010000
00001000
00010000
00001000
00010000
00000000
00000010
00001000
00000100
00000000
00001000
00000000
00000010
00000000
00010000
00000000
,
00001000
00010000
00001000
00010000
00001000
00000000
00100000
00010000
01000000
00000000
00010000
00000000
00100000
00000000
00001000
00000000
,
00010000
00001000
00010000
00001000
00010000
00000000
00000100
00001000
00000010
00000000
00000100
00000000
00000010
00000000
00010000
00000000
,
00001000
00010000
00001000
00010000
00001000
00000000
01000000
00010000
00100000
00000000
01000000
00000000
00100000
00000000
01000000
00000000
,
10000000
00010000
10000000
00010000
10000000
00000000
00100000
10000000
01000000
00000000
00010000
00000000
00001000
00000000
00000010
00000000
,
00000001
00001000
00000001
00001000
00000001
00000000
00000010
00000001
00000100
00000000
00001000
00000000
00010000
00000000
00001000
00000000
,
00010000
00001000
00010000
00001000
00010000
00000000
00001000
00000000
00100000
00000000
00001000
00000000
00010000
00000000
00000100
00000000
,
00001000
00000100
00001000
00000100
00002000
00000000
00000000
00000000
00003200
00000000
00000000
00000000
00020300
00000000
00000000
00000000
,
00031000
00000000
00010000
00000000
00001000
00000000
01000000
00010000
01000000
00010000
10000000
00000000
00010000
00000000
00100000
00010000
,
00100000
01000000
10000000
01000000
00200000
00302000
00203000
00302000
,
00013000
00000000
00001000
00000000
00010000
00000010
00010000
00000010
00001000
00000000
00000010
00000000
00000100
00000001
00000100
00000001
,
00001000
00000100
00000010
00000001
00002000
00003200
00002300
00003200
,
00010300
00010000
00001000
00100000
00010000
01000000
00001000
00010000
,
00000100
00000100
00001000
00000010
00010000
00001000
00100000
00001000
,
00010000
00010000
00001000
00001000
00010000
00010000
00001000
00001000
,
00010000
01000000
10000000
00100000
00010000
00001000
00000100
00000001
,
00001001
00011000
10010000
00011000
00001000
00100000
01000000
10000000
,
10010000
00011000
00001001
00011000
00110000
00000000
11000000
00000000
,
20020000
00000000
00000000
30030000
,
10000000
00000000
10000000
00000000
00010000
10000000
00010000
10000000
00020000
00000000
00000000
00000000
00030000
00000000
00100000
00000000
,
00001000
00010000
00001000
00010000
00001000
00000000
01000000
00010000
00100000
00000000
00010000
00000000
01000000
00000000
00001000
00000000
,
00010000
00001000
00010000
00001000
00010000
00000000
00000100
00001000
00000010
00000000
00001000
00000000
00000100
00000000
00010000
00000000
,
00001000
00010000
00001000
00010000
00001000
00000000
00100000
00010000
01000000
00000000
00100000
00000000
01000000
00000000
00001000
00000000
,
00010000
00001000
00010000
00001000
00010000
00000000
00000010
00001000
00000100
00000000
00000010
00000000
00000100
00000000
00000010
00000000
,
00000001
00001000
00000001
00001000
00000001
00000000
00000100
00000001
00000010
00000000
00001000
00000000
00010000
00000000
01000000
00000000
,
10000000
00010000
10000000
00010000
10000000
00000000
01000000
10000000
00100000
00000000
00010000
00000000
00001000
00000000
00010000
00000000
,
00001000
00010000
00001000
00010000
00001000
00000000
00010000
00000000
00000100
00000000
00010000
00000000
00001000
00000000
00010000
00000000
,
00000000
00000000
00000000
00001000
02000000
00000200
00000000
00000000
,
03000300
00000000
00000000
00000000
;
