#TITLE:SKY HIGH;
#SUBTITLE:;
#ARTIST:LUCYFER;
#TITLETRANSLIT:;
#SUBTITLETRANSLIT:;
#ARTISTTRANSLIT:;
#GENRE:;
#CREDIT:;
#MUSIC:SKY HIGH.mp3;
#BANNER:SKY HIGH.png;
#BACKGROUND:SKY HIGH-bg.png;
#CDTITLE:;
#SAMPLESTART:0.000;
#SAMPLELENGTH:0.000;
#SELECTABLE:YES;
#OFFSET:-0.274;
#BPMS:0.000=159.976;
#STOPS:;
#DISPLAYBPM:160.000;
#BGCHANGES:;
#FGCHANGES:;

//--------------- dance-single - HellKiteChaos ----------------
#NOTES:
     dance-single:
     HellKiteChaos:
     Challenge:
     15:
     0,0,0,0,0:
0000
0000
0000
0000
,
0000
0000
0000
0000
0000
0000
0000
0000
0000
0000
0000
0000
1000
0010
0100
0001
,
1000
0010
0100
0001
1000
0100
0010
0001
1000
0100
0010
0001
1000
0100
0000
0010
,
0000
0100
0000
0010
0001
0000
1000
0000
0002
0000
0003
0000
1000
0100
0010
0001
,
1000
0100
0010
0001
1000
0010
0100
0001
1000
0010
0100
0001
1000
0001
0000
1000
,
0000
0001
0000
0100
0010
0000
0100
0000
0020
0000
0030
0000
1000
0001
0100
0010
,
1000
0001
0100
0010
1000
0100
0010
0001
1000
0100
0010
0001
1000
0001
0000
1000
,
0000
0001
0000
1000
0100
0000
0010
0000
0002
0000
0003
0000
1002
0000
1000
0000
,
2003
0000
0010
0000
3020
0000
0100
0000
0130
0000
0000
0000
0100
0010
1000
0001
,
0100
0010
1000
0001
2000
0000
0000
0000
0000
0000
3000
0000
0001
0000
0100
0000
,
0001
1000
0001
0100
0001
1000
0100
1000
,
0001
1000
0100
1000
0010
0100
0001
0100
,
0101
0001
1000
0010
1010
1000
0001
0100
,
0010
1000
0001
0100
0010
0000
1000
0100
,
1000
0001
1000
0010
0100
0001
1000
0001
,
0100
0001
0010
0001
1000
0100
0010
0001
,
0011
0010
0100
1000
1001
0001
0100
0100
,
0100
0000
0010
0000
0100
0000
0100
0000
1001
0000
0000
0000
1000
0100
0000
0000
,
0010
0000
0010
0000
0001
1000
0000
0000
0010
0000
0100
0000
0010
0000
0100
0000
,
0000
0000
0110
0000
0000
0000
1001
0000
1000
0001
1000
0001
0100
0000
0010
0000
,
1000
0001
0100
0010
1000
0100
0010
0001
,
1000
0100
0010
0001
0100
0010
1000
0001
,
1000
0002
0003
0000
0100
0000
0010
0000
0100
0020
0030
0000
1000
0000
0001
0000
,
0100
0001
0010
0100
1000
0000
1000
0100
,
0010
0011
0000
0110
0000
1100
0000
1002
,
0000
0000
0000
0000
0000
0000
1003
0001
1000
0001
1000
0001
1000
0000
0100
0000
,
1000
0010
1000
0100
1000
0001
0100
0001
,
0010
0000
0001
0000
0100
0000
0010
0000
1000
0000
0001
0000
1000
0100
2000
0000
,
0001
0000
3001
0000
1000
0010
2000
0000
0001
0000
3001
0000
0100
0000
0100
0000
,
0010
0000
1000
0000
0001
0100
0010
1000
0001
0100
0010
1000
0001
0000
0100
0000
,
0210
0000
0000
0000
0310
0000
0100
0001
1000
0000
0002
0000
1000
0000
1003
0000
,
0001
0000
0200
0000
0001
0000
0301
0000
0010
0000
0100
0000
1000
0100
2000
0000
,
0100
0000
3100
0000
0010
0001
0020
0000
0100
0000
0130
0000
1000
0001
0010
0100
,
1000
0001
0010
0100
1000
0010
0100
0001
1000
0000
0001
0000
1000
0100
0000
0010
,
0000
0100
0000
0010
0000
0001
0000
1000
0001
0000
0100
0000
0010
1000
0000
0010
,
0000
1000
0000
0001
0000
0100
0010
0000
0100
0000
0000
0000
0010
0000
1000
0000
,
0001
0000
0100
0000
0020
0000
1000
0000
1030
0000
0001
0000
1000
0001
1000
0000
,
0100
0000
0010
0000
0001
0010
0001
0000
1000
0000
0010
0000
0100
0001
0100
0000
,
0010
1000
0010
0000
0100
0001
0100
0000
0010
1000
0010
0000
1000
0000
0002
0000
,
0100
0103
0020
1000
1030
0010
1000
0001
,
0020
0100
0130
1000
0002
1000
1003
0010
,
0100
0001
1000
0010
0100
0001
1000
0001
,
1000
0100
1000
0000
0001
0000
0100
0000
0001
1000
0001
0000
0100
0000
0100
0000
,
0001
1000
0001
0000
0100
0000
0100
0000
0010
0000
0000
0000
0100
0010
0000
1000
,
0000
0010
0000
1000
0000
0001
0100
0000
0100
0000
0001
0000
1000
0001
0000
1000
,
0000
0100
0000
0010
0000
0001
1000
0000
1002
0000
0000
0003
1000
0010
0100
0001
,
1000
0010
0100
0001
1000
0100
0010
0001
1000
0100
0010
0001
1000
0100
0000
1000
,
0000
0100
0000
1000
0001
0000
1000
0000
2001
0000
0000
3000
0001
0100
0010
1000
,
0001
0100
0010
1000
0001
0010
0100
1000
0001
0010
0100
1000
0001
0010
0000
0001
,
0000
0010
0000
0001
1000
0000
0010
0000
0210
0000
0000
0300
0001
1000
0010
0100
,
0001
1000
0010
0100
0001
0010
0100
1000
0001
0010
0100
1000
0001
0100
0000
0001
,
0000
0100
0000
0001
1000
0000
0100
0000
0021
0000
0030
0000
0012
0000
0010
0000
,
0023
0000
0100
0000
0230
0000
1000
0000
2300
0000
0001
3000
0001
0100
0010
1000
,
0001
1000
0100
0010
0002
0000
0000
0000
0000
0000
0003
0000
0000
0000
0000
0000
;

//--------------- dance-double - HellKiteChaos ----------------
#NOTES:
     dance-double:
     HellKiteChaos:
     Challenge:
     15:
     0,0,0,0,0:
00000000
00000000
00000000
00000000
,
00000000
00000000
00000000
00000000
00000000
00000000
00000000
00000000
00000000
00000000
00000000
00000000
00001000
00010000
00001000
00010000
,
00000010
00001000
00000010
00001000
00000100
00000010
00000100
00000010
00000001
00001000
00000001
00001000
00000100
00000010
00000000
00000010
,
00000000
00000010
00000000
00000001
00000100
00000000
00000010
00000000
00001000
00000000
00000000
00000000
00000010
00001000
00000010
00001000
,
00000001
00000010
00000001
00000010
00000100
00010000
00000100
00010000
00001000
00010000
00001000
00010000
00001000
01000000
00000000
01000000
,
00000000
01000000
00000000
00100000
10000000
00000000
00010000
00000000
01000000
00000000
00000000
00000000
00100000
01000000
00100000
01000000
,
00010000
01000000
00010000
01000000
00001000
00010000
00001000
00010000
00000100
00001000
00000100
00001000
00000001
00000010
00000000
00000010
,
00000000
00000010
00000000
00000100
00000010
00000000
00000001
00000000
00001000
00000000
00000000
00000000
00002000
00000000
00000010
00000000
,
00003020
00000000
00010000
00000000
00020030
00000000
00001000
00000000
00032000
00000000
00103000
00000000
00100000
01000000
00100000
01000000
,
10000000
00010000
00100000
01000000
20000000
00000000
00000000
00000000
00000000
00000000
30000000
00000000
01000000
00000000
00100000
00000000
,
01000000
10000000
01000000
00100000
00010000
10000000
00100000
01000000
,
00010000
10000000
00100000
01000000
00010000
00100000
00001000
00010000
,
00011000
00001000
00000100
00000010
00000110
00000010
00001000
00000001
,
00001001
00000100
00000010
00000100
00001001
00000000
00000001
00000010
,
00000001
00001000
00000100
00000010
00000100
00001000
00000001
00000100
,
00000010
00010000
00001000
00010000
00001000
00100000
00010000
10000000
,
10010000
00010000
01000000
00001000
01001000
01000000
00010000
00100000
,
00110000
00000000
00010000
00000000
10000000
00000000
01000000
00000000
00100000
00000000
00000000
00000000
00001000
00010000
00000000
00000000
,
00000100
00000000
00000100
00000000
00010000
00001000
00000000
00000000
00100000
00000000
01000000
00000000
10000000
00000000
01000000
00100000
,
01000000
00000000
00100000
00010000
00100000
00000000
00010000
10000000
00100000
00000000
01000000
00000000
00010000
00000000
00100000
00000000
,
00010000
01000000
00010000
00100000
00001000
01000000
00001000
00010000
,
00001000
00000000
00000100
00000000
00001000
00000000
00010000
00000000
00000010
00000000
00000100
00000000
00000001
00000100
00000001
00000000
,
00000001
00000000
00000001
00000000
00001000
00000010
00001000
00000000
00001000
00000000
00001000
00000000
00000100
00000000
00000010
00000000
,
00000001
00000100
00000010
00010000
00001000
00000000
00010000
00001000
,
00100000
00010000
01000000
00001000
00010000
00021000
00000000
00002000
,
00000000
00000000
00033000
00000000
00000000
00000000
00001000
00010000
00001000
00010000
00001000
00010000
00001000
00000000
00100000
00000000
,
01000000
00000000
00100000
00000000
00010000
00000000
00100000
00000000
01000000
00000000
10000000
01000000
20000000
00000000
00010000
00000000
,
30010000
00000000
01000000
00100000
02000000
00000000
00100000
00000000
03100000
00000000
10000000
00000000
00010000
00000000
01000000
00000000
,
01010000
00010000
10000000
01000000
11000000
10000000
01000000
00010000
,
00001000
00000000
00010000
00000000
00001000
00000000
00000010
00000000
00000001
00000010
00000001
00000010
00000001
00000000
00001000
00000000
,
00001001
00000001
00000100
00000010
00000110
00000100
00000010
00010000
,
00000010
00000000
00000100
00000000
00000010
00000000
00010000
00000000
00000100
00000000
00010000
00000000
00001000
00100000
00002000
00000000
,
00010000
00000000
00013000
00000000
00000010
00001000
00000020
00000000
00001000
00000000
00001030
00000000
00000100
00000000
00010000
00000000
,
00001000
00000000
00100000
00000000
00010000
00000000
01000000
00000000
00100000
00000000
10000000
00000000
00010000
01000000
00000000
00010000
,
00000000
01000000
00000000
00001000
00000000
00010000
00000000
00001000
00010000
00000000
00001000
00000000
00010000
00000010
00000000
00001000
,
00000000
00000010
00000000
00000100
00000000
00000010
00001000
00000000
00000001
00000000
00000000
00000000
00001000
00000000
00000010
00000000
,
00000100
00000000
00000001
00000000
00000010
00000000
00000100
00000000
00000100
00000000
00000100
00000000
00010000
00000100
00010000
00000000
,
00001000
00000000
00001000
00000000
01000000
00010000
01000000
00000000
00100000
00000000
00100000
00000000
10000000
00100000
10000000
00000000
,
00010000
01000000
00010000
00000000
10000000
01000000
10000000
00000000
00010000
00100000
00010000
00000000
10000000
00000000
01000000
00000000
,
00010000
00001000
00010000
00001000
00000100
00000001
00001000
00000001
,
00001001
00001000
00000010
00001000
00001010
00000010
00001000
00000100
,
00010000
00000000
00000010
00000000
00001000
00000000
00000100
00000000
00010000
00000000
00001000
00000000
00100000
00010000
00100000
00000000
,
00001000
00000000
00010000
00000000
00000100
00001000
00000100
00000000
00010000
00000000
00001000
00000000
01000000
00000000
00100000
00000000
,
10000000
00000000
00010000
00000000
01000000
00000000
00100000
00000000
10000000
00000000
00000000
00000000
00010000
00100000
00000000
00100000
,
00000000
00010000
00000000
00010000
00000000
10000000
00010000
10000000
00010000
00000000
01000000
00000000
00010000
01000000
00000000
01000000
,
00000000
00001000
00000000
00001000
00000000
00010000
00001000
00010000
00001000
00000000
00000000
00000000
00010000
00000100
00010000
00000100
,
00001000
00000010
00001000
00000010
00010000
00001000
00010000
00001000
01000000
00010000
01000000
00010000
10000000
01000000
00000000
01000000
,
00000000
01000000
00000000
00100000
00010000
00000000
10000000
00000000
00010000
00000000
00000000
00000000
10000000
00100000
10000000
00100000
,
01000000
00010000
01000000
00010000
00100000
00001000
00100000
00001000
00010000
00001000
00010000
00001000
00010000
00001000
00000000
00001000
,
00000000
00001000
00000000
00010000
00001000
00000000
00000010
00000000
00000001
00000000
00000000
00000000
00000100
00000001
00000100
00000001
,
00001000
00000010
00001000
00000010
00010000
00000100
00001000
00000010
00010000
00000100
00001000
00000010
00010000
00001000
00000000
00100000
,
00000000
00010000
00000000
10000000
01000000
00000000
00100000
00000000
00010000
00000000
00000000
00000000
20000000
00000000
00100000
00000000
,
30200000
00000000
01000000
00000000
02300000
00000000
00010000
00000000
03020000
00000000
00130000
00000000
00010000
00100000
00001000
00010000
,
00000100
00001000
00000010
00001000
00000002
00000000
00000000
00000000
00000000
00000000
00000003
00000000
00000000
00000000
00000000
00000000
;
