#TITLE:SENORITA(Speedy Mix);
#SUBTITLE:;
#ARTIST:JENNY ROM;
#TITLETRANSLIT:;
#SUBTITLETRANSLIT:;
#ARTISTTRANSLIT:;
#GENRE:;
#CREDIT:;
#MUSIC:SENORITA(Speedy Mix).mp3;
#BANNER:SENORITA(Speedy Mix).png;
#BACKGROUND:SENORITA(Speedy Mix)-bg.png;
#CDTITLE:;
#SAMPLESTART:0.000;
#SAMPLELENGTH:0.000;
#SELECTABLE:YES;
#OFFSET:-0.265;
#BPMS:0.000=174.000;
#STOPS:;
#DISPLAYBPM:174.000;
#BGCHANGES:;
#FGCHANGES:;

//--------------- dance-single - HellKiteChaos ----------------
#NOTES:
     dance-single:
     HellKiteChaos:
     Challenge:
     15:
     0,0,0,0,0:
0000
0000
0000
0000
,
0000
0000
0000
0000
,
0000
0000
0000
0000
,
0000
0000
0000
0000
,
1000
0000
0010
0000
0100
0001
0100
0000
0001
0000
0010
0000
0100
1000
0100
0000
,
1000
0000
0010
0000
0100
0000
0001
1000
0000
0000
0100
0000
0010
0000
0010
0000
,
0001
0000
1000
0000
0010
1000
0010
0000
0100
0000
0001
0000
0010
0001
0010
0000
,
0100
0000
1000
0000
0010
0000
1000
0001
0000
0000
1000
0000
0100
0000
0010
0000
,
0001
0000
1000
0000
0010
0100
0010
0000
1000
0000
0001
0000
1000
0001
1000
0000
,
0100
0000
0010
0000
0001
0000
0100
0010
0000
0000
0100
0000
0010
0000
1000
0000
,
0001
0000
0100
0000
0010
0100
0010
0000
1000
0000
0001
0000
1000
0001
1000
0000
,
0001
0001
1000
1000
0100
0010
0001
0000
,
1000
0001
0010
0001
0100
0001
1000
0000
,
0010
0000
1000
0000
0010
0000
0100
0000
0010
0000
1000
0000
0001
0000
1000
0100
,
1000
0100
0010
0100
1000
0001
0010
0000
,
0100
0000
0010
0000
0100
0000
0010
0000
0100
0000
1000
0000
0001
0000
1000
0001
,
0100
0001
0100
0010
1000
0010
1000
0000
,
0010
0100
0010
0100
0001
1000
0010
0100
,
0001
1000
1100
1000
0001
0100
0101
0001
,
1000
0000
0010
0000
1010
0000
1000
0000
0001
1000
0001
1000
0001
0000
1000
0000
,
1200
0000
0310
0002
1000
0000
0100
0003
,
1000
0001
1000
0001
0100
0010
1000
0001
,
0102
0000
1003
0020
1000
0000
0100
0030
,
0100
0010
1000
0001
0100
0010
1000
0001
,
0021
0000
0130
2000
0001
0000
0010
3000
,
0010
0100
0001
1000
0010
0001
0010
1000
,
0001
0100
0101
0001
1000
0010
1010
1000
,
0001
0000
1000
0000
1001
0000
0001
0000
1000
0100
1000
0100
1000
0000
0001
0000
,
0010
0000
0001
0010
0001
0000
0010
0100
0010
0000
0001
0010
0001
0000
0010
0100
,
0010
0000
0001
0010
0001
0000
1000
0000
0100
0000
0010
0000
0001
0000
0000
0000
,
1001
1000
0100
1000
0100
1000
0100
0000
,
1001
0001
0100
0001
0100
0001
0100
0010
,
1000
0000
0010
0100
0010
0000
1000
0010
1000
0000
0010
0100
0010
0000
1000
0010
,
1000
0000
0010
0100
0010
0000
1000
0010
1000
0000
0001
0000
0100
0000
0010
0000
,
2000
0000
0000
3002
0000
0000
0103
0000
0020
0000
0000
2030
0000
0000
3200
0000
,
0020
0000
0000
0000
0000
0000
0330
0000
0010
0100
0010
0100
0010
0100
0010
0100
,
0010
0000
0001
0000
1000
0000
0100
0000
0010
0100
0010
0000
0000
0000
0001
0000
,
1000
0000
0001
0000
0100
0000
0010
0000
0100
0010
0100
0000
0000
0000
0010
0000
,
1000
0000
0001
0000
0100
0000
0010
0000
1000
0001
1000
0000
0001
0000
0001
0000
,
0100
0000
0100
0000
0100
0000
0001
0000
1000
0010
0100
0001
1000
0010
0100
0001
,
1000
0000
0001
0000
0100
0000
0001
0000
1000
0100
1000
0000
0000
0000
0100
0000
,
1000
0000
0001
0000
0100
0000
0001
0000
1000
0010
1000
0000
0000
0000
0010
0000
,
1000
0000
0001
0000
1000
0000
0100
0000
0010
0001
0010
0000
0001
0000
0001
0000
,
1000
0000
1000
0000
0100
0000
0100
0000
0010
0001
1000
0100
0010
0001
1000
0001
,
0100
0000
0010
0000
1000
0000
0010
0000
1000
0010
1000
0000
0010
1000
0010
0000
,
1000
0000
0001
0000
0010
0000
0001
0000
1000
0001
1000
0000
0001
1000
0001
0000
,
1000
0000
0100
0000
0010
0000
0001
0000
0100
0001
0100
0000
0001
0100
0001
0000
,
1000
0000
0010
0000
0100
0000
0001
0000
1000
0000
0001
0000
1000
0001
1000
0001
,
1000
0000
0100
1000
0100
0000
1000
0100
1000
0000
0001
0000
0010
0000
0001
0000
,
1000
0000
0010
1000
0010
0000
1000
0010
1000
0000
0001
0000
1000
0000
0010
0000
,
0100
0000
0010
0100
0010
0000
0100
0010
0100
0000
0001
0000
1000
0000
0100
0000
,
0000
0010
0100
0010
0001
1000
0001
1000
,
0001
0000
0100
0000
0010
1000
0010
0000
1000
0000
0100
0000
0010
0001
0010
0000
,
0001
0000
0100
0000
0010
0000
1000
0001
0000
0000
1000
0000
0010
0000
0100
0000
,
0001
0000
1000
0000
0001
0010
0001
0000
0100
0000
0010
0000
1000
0010
1000
0000
,
0100
0000
0010
0000
0001
0000
1000
0001
0000
0000
0100
0000
0010
0000
0100
0000
,
0001
0000
1000
0000
0010
1000
0010
0000
0100
0000
0001
0000
0010
0001
0010
0000
,
0100
0000
1000
0000
0010
0000
0100
0001
0000
0000
1000
0000
0100
0000
0010
0000
,
0001
0000
1000
0000
0100
1000
0100
0000
1000
0000
0001
0000
0010
0001
0010
0000
,
0001
0000
1000
0000
0010
0000
0100
0010
0000
0100
0010
0000
1000
0001
1000
0000
,
0002
0000
1003
0002
2000
0003
0002
0000
,
3003
0000
0000
0000
;

//--------------- dance-double - HellKiteChaos ----------------
#NOTES:
     dance-double:
     HellKiteChaos:
     Challenge:
     15:
     0,0,0,0,0:
00000000
00000000
00000000
00000000
,
00000000
00000000
00000000
00000000
,
00000000
00000000
00000000
00000000
,
00000000
00000000
00000000
00000000
,
00001000
00000000
00010000
00000000
00000010
00001000
00000010
00000000
00010000
00000000
00001000
00000000
00100000
00010000
00100000
00000000
,
00001000
00000000
00000100
00000000
00001000
00000000
00010000
00001000
00000000
00000000
00100000
00000000
01000000
00000000
00010000
00000000
,
00001000
00000000
00010000
00000000
00000100
00001000
00000100
00000000
00010000
00000000
00001000
00000000
01000000
00010000
01000000
00000000
,
00001000
00000000
00010000
00000000
00000010
00000000
00010000
00001000
00000000
00000000
00000010
00000000
00000001
00000000
00000100
00000000
,
00001000
00000000
00010000
00000000
00100000
00010000
00100000
00000000
00010000
00000000
00001000
00000000
00000010
00001000
00000010
00000000
,
00001000
00000000
00010000
00000000
00001000
00000000
00000100
00000010
00000000
00000000
00001000
00000000
00000001
00000000
00000100
00000000
,
00000010
00000000
00001000
00000000
00100000
01000000
00100000
00000000
10000000
00000000
00010000
00000000
00100000
01000000
00100000
00000000
,
00010000
00010000
10000000
10000000
01000000
00100000
00010000
00000000
,
10000000
00100000
01000000
00010000
00100000
01000000
00100000
00000000
,
00100000
10000000
00100000
01000000
00100000
00010000
00100000
00001000
,
00010000
00000010
00000100
00000010
00000001
00000010
00000100
00000000
,
00000010
00000000
00000100
00000000
00000001
00000000
00000010
00000000
00000100
00000000
00000010
00000000
00000001
00000000
00001000
00000001
,
00000100
00000010
00001000
00000010
00000100
00000010
00001000
00000000
,
00000100
00010000
00001000
00000100
00000010
00001000
00010000
00100000
,
01000000
10000000
11000000
10000000
00010000
01000000
01010000
00010000
,
00100000
00000000
00001000
00000000
00101000
00000000
00100000
00000000
00001000
00010000
00001000
00010000
00001000
00000000
00010000
00000000
,
00010200
00000000
00000310
00000002
00001000
00000000
00000100
00000000
,
00000013
00001000
00010000
01000000
10000000
00010000
01000000
00100000
,
10200000
00000000
10300000
00020000
10000000
00000000
01030000
00000000
,
01000000
00100000
10000000
01000000
00010000
00001000
00010000
00001000
,
00021000
00000000
00030100
00002000
00000010
00000000
00000001
00003000
,
00000100
00010000
00000010
00000100
00001000
00010000
00100000
01000000
,
00001000
00100000
01000000
00010000
00001000
00000010
00000100
00010000
,
00000010
00000000
00000100
00000000
00001000
00000000
00010000
00000000
00001000
00010000
00001000
00010000
00100000
00000000
01000000
00000000
,
00100000
00000000
10000000
00100000
10000000
00000000
00100000
01000000
00100000
00000000
00010000
00100000
00010000
00000000
00100000
01000000
,
00100000
00000000
10000000
00100000
10000000
00000000
01000000
00000000
00100000
00000000
00010000
00000000
01000000
00000000
00000000
00000000
,
01010000
01000000
00001000
01000000
00010000
00100000
00001000
00000000
,
00011000
00000010
00010000
00000100
00001000
00000010
00000100
00000001
,
00001000
00000000
00000100
00000010
00000100
00000000
00000001
00000100
00000001
00000000
00000100
00000010
00000100
00000000
00001000
00000100
,
00001000
00000000
00000100
00000010
00000100
00000000
00000001
00000100
00000001
00000000
00000100
00000000
00001000
00000000
00000010
00000000
,
00002000
00000000
00000000
00003002
00000000
00000000
00000103
00000000
00000020
00000000
00000000
00020030
00000000
00000000
00032000
00000000
,
00020000
00000000
00000000
00000000
00000000
00000000
00033000
00000000
00001000
00010000
00001000
00010000
00001000
00010000
00001000
00010000
,
00001000
00000000
00010000
00000000
01000000
00000000
00100000
00000000
00001000
00010000
00001000
00000000
00000000
00000000
00010000
00000000
,
00000010
00000000
00000100
00000000
00001000
00000000
00010000
00000000
00001000
00010000
00001000
00000000
00000000
00000000
00001000
00000000
,
00100000
00000000
01000000
00000000
00010000
00000000
00001000
00000000
00010000
00001000
00010000
00000000
00001000
00000000
00001000
00000000
,
01000000
00000000
01000000
00000000
01000000
00000000
00010000
00000000
10000000
00100000
01000000
00010000
10000000
00100000
01000000
00010000
,
10000000
00000000
00010000
00000000
01000000
00000000
00100000
00000000
10000000
01000000
10000000
00000000
00000000
00000000
01000000
00000000
,
10000000
00000000
01000000
00000000
00100000
00000000
00010000
00000000
01000000
00010000
01000000
00000000
00000000
00000000
00100000
00000000
,
10000000
00000000
00100000
00000000
00010000
00000000
00001000
00000000
00010000
00001000
00010000
00000000
00001000
00000000
00010000
00000000
,
00001000
00000000
00001000
00000000
00001000
00000000
00001000
00000000
00010000
00000100
00001000
00000010
00000100
00000001
00000100
00000001
,
00001000
00000000
00000001
00000000
00000100
00000000
00000010
00000000
00001000
00000010
00001000
00000000
00000010
00010000
00000010
00000000
,
00010000
00000000
00001000
00000000
00100000
00000000
00010000
00000000
10000000
00010000
10000000
00000000
01000000
10000000
01000000
00000000
,
10000000
00000000
01000000
00000000
00100000
00000000
00010000
00000000
01000000
00010000
01000000
00000000
00001000
01000000
00001000
00000000
,
00010000
00000000
00001000
00000000
00000100
00000000
00001000
00000000
00010000
00000000
00001000
00000000
00010000
00000100
00010000
00000100
,
00010000
00000000
00000100
00000010
00000100
00000000
00000010
00000001
00000010
00000000
00000001
00000000
00001000
00000000
00001000
00000000
,
00000001
00000000
00001000
00000010
00001000
00000000
00000010
00010000
00000010
00000000
00010000
00000000
00001000
00000000
00100000
00000000
,
00010000
00000000
00100000
01000000
00100000
00000000
01000000
00100000
01000000
00000000
10000000
00000000
00010000
00000000
01000000
00000000
,
00000000
00100000
01000000
00100000
10000000
01000000
00100000
00010000
,
01000000
00000000
00001000
00000000
00100000
00010000
00100000
00000000
00001000
00000000
00010000
00000000
00000010
00001000
00000010
00000000
,
00010000
00000000
00000010
00000000
00000100
00000000
00001000
00010000
00000000
00000000
00001000
00000000
00100000
00000000
00001000
00000000
,
00010000
00000000
00001000
00000000
00000100
00001000
00000100
00000000
00001000
00000000
00010000
00000000
01000000
00010000
01000000
00000000
,
00010000
00000000
00001000
00000000
00010000
00000000
00000010
00000100
00000000
00000000
00000010
00000000
00000100
00000000
00000001
00000000
,
00000010
00000000
00000100
00000000
00001000
00000100
00001000
00000000
00000100
00000000
00010000
00000000
00001000
00100000
00001000
00000000
,
00010000
00000000
00001000
00000000
01000000
00000000
00100000
01000000
00000000
00000000
10000000
00000000
01000000
00000000
00100000
00000000
,
10000000
00000000
10000000
00000000
01000000
10000000
01000000
00000000
10000000
00000000
00010000
00000000
00100000
00010000
00100000
00000000
,
00010000
00000000
10000000
00000000
00100000
00000000
01000000
00100000
00000000
01000000
00100000
00000000
10000000
00010000
10000000
00000000
,
01000000
00000000
00100000
00020000
20000000
00030000
00020000
00000000
,
30030000
00000000
00000000
00000000
;
