#TITLE:Remember You;
#SUBTITLE:;
#ARTIST:NM feat.Julie;
#TITLETRANSLIT:;
#SUBTITLETRANSLIT:;
#ARTISTTRANSLIT:;
#GENRE:Dance Dance Revolution 5th Mix,Dancing Stage Euromix 2;
#CREDIT:;
#MUSIC:Remember You.mp3;
#BANNER:Remember You.png;
#BACKGROUND:Remember You-bg.png;
#CDTITLE:;
#SAMPLESTART:0.000;
#SAMPLELENGTH:0.000;
#SELECTABLE:YES;
#OFFSET:-0.103;
#BPMS:0.000=105.000
,152.000=103.000
,154.000=97.000
,157.000=83.000
,158.000=75.000
,159.000=53.000
,160.000=45.000
;
#STOPS:;
#DISPLAYBPM:105.000;
#BGCHANGES:;
#FGCHANGES:;

//--------------- dance-single - HellKiteChaos ----------------
#NOTES:
     dance-single:
     HellKiteChaos:
     Challenge:
     11:
     0,0,0,0,0:
0000
0000
0000
0000
,
0000
0000
0000
0000
,
0010
1000
0002
0000
0000
0000
0100
0000
0103
0000
0000
0000
0010
0000
1000
0000
,
0200
0320
0032
1003
,
0100
1000
0002
0000
0010
0000
0010
0000
0000
0000
0103
0000
0010
0000
1000
0000
,
0001
0000
1000
0000
0100
0000
0010
0001
0000
0000
1000
0000
0120
0000
0000
0000
,
0031
0000
0100
0000
0100
0000
0010
0100
0001
0000
0100
0000
0010
0000
1000
0000
,
0100
0000
0100
0000
0010
0000
0001
0010
0100
0000
1000
0000
0001
0000
0000
0000
,
0100
0000
0100
0000
0001
0000
1000
0010
0100
0000
0010
0000
0100
0000
0001
0000
,
1000
1000
0100
0000
0010
0010
0001
1000
,
0100
0000
0100
0000
1000
0000
0001
0100
0001
0000
1000
0000
0100
0000
0000
0000
,
1000
0000
1000
0000
0001
0000
0010
0001
0010
0000
1000
0000
0010
0000
0002
0000
,
0000
2003
0000
3200
0000
1300
0001
0200
,
0000
0310
0010
0100
0001
1000
0010
0100
,
0001
0000
0001
0000
0100
0000
0010
0100
0010
0000
1000
0000
0001
0000
0000
0000
,
1000
0000
1000
0000
0100
0000
0010
0100
0010
0000
0001
0000
1000
0000
0000
0001
,
0200
0000
0300
0010
2000
0000
3000
0001
0020
0000
0030
0100
2000
0000
3000
0000
,
0001
0000
0001
0000
0010
0000
0010
0000
0100
0000
1000
0000
0001
0100
0010
1000
,
0100
0100
0110
0010
0001
2002
0000
3003
,
1000
0000
0100
0000
1100
0000
0001
0100
0001
0100
0001
0000
1100
0000
0000
0000
,
0001
0000
0100
0000
0101
0000
1000
0100
1000
0100
1000
0000
0101
0000
0000
0000
,
1000
0000
0010
0000
1010
0000
0001
0010
0001
0010
0001
0000
1010
0000
0000
0000
,
1000
0000
0001
0000
0011
0000
1000
0010
1000
0010
1000
0000
0011
0000
0110
0000
,
1100
1000
1100
0000
0001
0010
0010
0001
,
0101
0100
0101
0000
0001
0100
0010
1000
,
1100
1000
1000
0001
0101
0001
1000
0010
,
0100
0100
0001
0001
1000
1000
0010
0100
,
0000
0110
1001
0220
0000
0000
0330
0000
,
1000
0000
0010
0000
1010
0000
0100
0001
0100
0001
0100
0000
1010
0000
1000
0000
,
0001
0000
0010
0000
0011
0000
0100
1000
0100
1000
0100
0000
0011
0000
0001
0000
,
1000
0100
0001
0100
1000
0100
0001
0100
,
1000
0010
0001
0010
1000
0010
0001
0010
,
1000
0000
0010
0000
1010
0000
0001
0010
0001
0010
0001
0000
1100
0000
1000
0000
,
0001
0000
0100
0000
0101
0000
1000
0100
1000
0100
1000
0000
0011
0000
0001
0000
,
1000
1000
1000
0001
1000
1000
1000
0001
,
0100
0010
1000
0001
0000
0100
0010
1000
,
0001
0000
0001
0000
0100
0000
0000
0010
0100
0000
0001
0000
1001
0000
0000
0000
,
0010
0000
0100
0000
1000
0000
0000
0001
1000
0000
0001
0000
1001
0000
1000
0000
,
0100
0000
0100
0100
0010
0000
0010
0010
,
0001
1000
0100
0010
,
0001
0000
0000
0000
;

//--------------- dance-double - HellKiteChaos ----------------
#NOTES:
     dance-double:
     HellKiteChaos:
     Challenge:
     12:
     0,0,0,0,0:
00000000
00000000
00000000
00000000
,
00000000
00000000
00000000
00000000
,
00001000
00010000
00002000
00000000
00000000
00000000
01000000
00000000
02003000
00000000
00000000
00000000
03100000
00000000
10000000
00000000
,
02000000
00000000
03100000
00200000
00000000
00301000
00021000
00000000
,
00030100
00010000
00000200
00000000
00001000
00000000
00000310
00000000
00000000
00000000
00000001
00000000
00000100
00000000
00000010
00000000
,
00001000
00000000
00000100
00000000
00000010
00000000
00000010
00000001
00000000
00000000
00000100
00000000
00002001
00000000
00000000
00000000
,
00003010
00000000
00000100
00000000
00000100
00000000
00000010
00001000
00000001
00000000
00000010
00000000
00001000
00000000
00010000
00000000
,
00001000
00000000
00000100
00000000
00001000
00000000
00010000
00100000
01000000
00000000
00010000
00000000
10000000
00000000
00000000
00000000
,
01000000
00000000
01000000
00000000
00100000
00000000
00010000
10000000
01000000
00000000
00100000
00000000
01000000
00000000
10000000
00000000
,
00010000
10000000
00100000
00000000
00100000
00010000
00001000
00000100
,
00000001
00000000
00001000
00000000
00000100
00000000
00001000
00000100
00001000
00000000
00000001
00000000
00000100
00000000
00000000
00000000
,
00000001
00000000
00000001
00000000
00001000
00000000
00000001
00000100
00000001
00000000
00001000
00000000
00000100
00000000
00020000
00000000
,
00000000
02030000
00000000
03200000
00000000
00310000
10000000
02000000
,
00000000
03100000
00100000
01000000
00010000
10000000
00100000
01000000
,
10000000
00000000
10000000
00000000
01000000
00000000
00100000
01000000
00100000
00000000
00010000
00000000
01000000
00000000
00000000
00000000
,
00100000
00000000
10000000
00000000
01000000
00000000
00100000
01000000
00100000
00000000
00010000
00000000
10000000
00000000
00010000
00000000
,
02000000
03002000
00023000
00030020
,
00010030
00000000
00010000
00000000
00000100
00000000
00000100
00000000
00000010
00000000
00000001
00000000
00001000
00000010
00000100
00000001
,
00001000
00000001
00000110
00001000
00000001
00002002
00000000
00003003
,
00000001
00000000
00000010
00000000
00000011
00000000
00001000
00000010
00001000
00000010
00001000
00000000
00000011
00000000
00000000
00000000
,
00001000
00000000
00000010
00000000
00001010
00000000
00000001
00000010
00000001
00000010
00000001
00000000
00001010
00000000
00000010
00000000
,
00010000
00000000
00001000
00000000
00101000
00000000
00100000
00010000
00100000
00010000
00100000
00000000
01100000
00000000
01000000
00000000
,
10000000
00000000
00010000
00000000
00110000
00000000
10000000
00100000
10000000
00100000
10000000
00000000
00110000
00000000
01100000
00000000
,
11000000
10000000
11000000
00000000
00010000
00100000
00100000
00001000
,
00010000
00001000
00011000
00000000
00010000
01000000
00100000
00010000
,
00110000
00100000
00001000
00001000
00010000
00001000
00001000
00000100
,
00000010
00001000
00000001
00001000
00000001
00000001
00000010
00000100
,
00000000
00000110
00001001
00000220
00000000
00000000
00000330
00000000
,
00000001
00000000
00000100
00000000
00000101
00000000
00000010
00001000
00000010
00001000
00000010
00000000
00000101
00000000
00000001
00000000
,
00001000
00000000
00000100
00000000
00001100
00000000
00000010
00000001
00000010
00000001
00000010
00000000
00001100
00000000
00000100
00000000
,
00010000
00001000
00000100
00001000
00010000
00100000
10000000
00100000
,
00010000
00001000
00010000
01000000
10000000
00100000
00010000
00100000
,
10000000
00000000
00100000
00000000
10100000
00000000
00010000
00100000
00010000
00100000
00010000
00000000
11000000
00000000
10000000
00000000
,
00010000
00000000
01000000
00000000
01010000
00000000
10000000
01000000
10000000
01000000
10000000
00000000
00110000
00000000
00010000
00000000
,
00100000
01000000
00010000
00001000
00000010
00000100
00000010
00000001
,
00000100
00000010
00001000
00000001
00000000
00000100
00000010
00010000
,
00001000
00000000
00010000
00000000
01000000
00000000
00000000
00100000
01000000
00000000
10000000
00000000
10010000
00000000
00000000
00000000
,
00100000
00000000
01000000
00000000
00010000
00000000
00000000
10000000
00010000
00000000
00010000
00000000
10010000
00000000
10000000
00000000
,
01000000
00000000
01000000
01000000
00100000
00000000
00100000
00100000
,
00010000
00100000
00001000
00010000
,
00011000
00000000
00000000
00000000
;
