#TITLE:Radical Faith;
#SUBTITLE:;
#ARTIST:TaQ;
#TITLETRANSLIT:;
#SUBTITLETRANSLIT:;
#ARTISTTRANSLIT:;
#GENRE:;
#CREDIT:;
#MUSIC:Radical Faith.mp3;
#BANNER:Radical Faith.png;
#BACKGROUND:Radical Faith-bg.png;
#CDTITLE:;
#SAMPLESTART:0.000;
#SAMPLELENGTH:0.000;
#SELECTABLE:YES;
#OFFSET:-0.068;
#BPMS:0.000=114.000;
#STOPS:;
#DISPLAYBPM:114.000;
#BGCHANGES:;
#FGCHANGES:;

//--------------- dance-single - HellKiteChaos ----------------
#NOTES:
     dance-single:
     HellKiteChaos:
     Challenge:
     16:
     0,0,0,0,0:
0000
0000
0000
0000
,
0000
0000
0000
0000
,
1000
0001
0100
0000
0001
1000
0010
0100
,
0000
0000
0010
0000
0100
0000
0010
0000
1000
0000
0001
0000
1000
0000
0001
0100
0001
0000
0100
0000
0010
0000
1000
0000
0001
0000
0100
0000
0010
0000
1000
0000
,
0100
0000
0100
0000
0010
0001
0000
1000
0100
1000
0100
1000
0001
0000
1000
0001
,
1000
0000
0001
0000
0100
0010
0000
0010
1000
0100
1000
0010
0200
0000
0001
0300
,
0001
0000
0100
0000
0010
1000
0000
0001
0010
0001
0100
0001
1000
0000
0100
0000
,
0010
0000
0000
0000
0001
0000
0000
0000
1000
0000
0100
0000
0010
0000
0001
1000
0002
0000
0100
0000
0000
0000
0100
0000
0000
0000
0103
0000
0000
0000
0010
0000
,
1000
0000
0010
0100
0001
0000
1000
0100
1000
0001
0100
0001
1000
0000
0001
0000
,
0100
0000
0010
1000
0001
0000
0010
0001
1000
0010
0000
0010
0100
0000
0100
0000
,
0001
0000
1000
0100
0001
0000
0100
1000
0100
0010
0100
1000
0001
0000
1000
0000
,
0100
0000
0000
0000
0010
0000
0100
0000
1000
0000
0000
0000
0100
0000
1000
0001
2000
0000
0010
0000
0000
0000
0010
0000
0000
0000
3010
0000
0000
0000
0100
0000
,
0001
0000
1000
0000
0001
1000
0000
0001
0100
1000
0100
0001
1000
0000
0001
0000
,
1001
0000
0001
0000
1000
0001
0000
0010
0001
0100
0000
0010
2000
0000
0000
3000
,
0001
0000
0000
0000
1001
0000
0000
0000
1000
0000
0100
0000
0000
0000
1000
0000
0010
0000
1000
0000
0100
0000
0000
0000
1000
0000
0000
0000
0001
1000
0001
1000
,
0001
0000
0000
0000
0100
0010
0100
0010
0100
0000
0000
0000
0001
1000
0001
1000
0001
0000
0100
0000
0010
0000
1000
0000
0100
0000
0010
0000
0001
0000
1000
0000
,
1002
0000
0013
0001
0100
0000
0001
0100
0010
0100
0001
0010
0001
0000
1000
0000
,
0020
0000
0130
0010
1000
0000
0100
1000
0010
0100
0000
0100
0000
0100
0010
1000
,
0002
0000
1003
0100
0010
0000
0001
0010
1000
0010
0001
1000
0001
0000
1001
0000
,
1001
0000
1000
0010
0100
0001
0001
0001
1000
1000
1000
0100
0010
0000
0000
0000
,
0001
0000
1000
0100
1100
0000
1000
0010
0100
0010
0100
0001
1000
0000
0001
0000
,
1000
0000
0001
0010
0011
0000
0001
0010
0100
1000
0000
1000
0000
1000
0000
0010
,
0100
0010
0010
0100
0001
0000
1000
0100
1000
0001
0000
0001
0000
0001
1000
0001
,
0100
0000
0000
0000
0010
0000
1000
0000
0010
0000
0100
0010
0100
0000
0010
0000
0100
0000
0001
0000
1000
0000
0001
0000
1001
0000
0000
0000
0000
0000
0000
0000
,
2100
0000
3001
0000
0100
0100
0101
1000
,
1010
0000
1001
0000
0001
0010
0001
0100
,
0101
0000
1100
0000
0011
0010
0101
0001
,
1000
0000
0001
0000
1000
0000
0001
0000
1000
0000
0001
0000
1000
0000
0010
0100
0010
0000
0100
0000
0010
0000
0100
0000
0010
0000
0100
0000
0010
0000
0100
0000
,
0001
0000
0001
0000
0101
0000
0001
0100
0010
1000
0001
0100
0010
1000
0001
1000
,
0100
0000
0100
0000
1100
0000
1000
0100
0010
0001
1000
0100
0010
0001
1000
0001
,
0100
0000
0100
0000
0101
0000
0001
1000
0010
0100
0001
1000
0010
0100
0001
1000
,
0100
0000
0100
0000
1000
0100
1000
0100
1000
0000
0001
0000
0100
0001
0100
0001
0100
0000
0001
0000
1000
0010
1000
0010
1000
0000
0010
0000
1000
0000
0010
0000
,
1000
0000
0010
1000
1010
0000
1000
0010
0100
0001
1000
0010
0100
0001
0010
0001
,
0010
0000
0001
0010
0011
0000
0001
0010
0100
1000
0000
0001
0000
1000
0000
0001
,
0100
0000
0010
0100
0110
0000
0100
0010
1000
0100
0010
0001
0100
0010
1000
0001
,
1000
0000
0001
1000
1000
0001
1000
1000
0100
0100
0010
0001
0200
0000
0010
0000
,
0301
0000
1000
0100
0011
0000
0001
1000
0100
0001
0100
1000
0001
0000
0100
0000
,
0001
0000
0100
0010
1010
0000
1000
0001
0100
0001
0000
0010
0000
0100
1000
0001
,
1000
0000
0001
0010
1100
0000
1000
0001
0010
1000
0010
0001
1000
0000
0001
1000
,
0001
0000
0100
0010
1000
0000
0010
0100
0001
0001
1000
0100
0010
0000
0000
0000
,
0001
0010
0000
0001
0010
0001
0010
0001
0000
1000
0000
0100
1000
0000
1001
0000
,
1000
0010
0000
1000
0010
1000
0010
1000
0000
0010
0000
0100
0001
0000
1000
0000
,
0001
0100
0000
0001
0100
0001
0100
0001
0000
0100
0000
0010
0100
0000
0001
0000
,
1000
0000
0100
0000
0000
0000
0010
0001
0010
0000
0001
0000
0000
0000
1000
0010
1000
0000
0010
0000
0000
0000
1000
0000
0001
0000
0100
0000
1000
0000
0100
0000
,
0001
0100
0001
0100
0010
0000
1000
0010
0100
0001
0010
0001
0100
0001
0010
0001
,
1000
0000
0100
0010
0001
0000
1000
0010
1000
0100
0000
0100
0000
0100
0000
0100
,
1000
0000
0010
1000
0001
0000
0100
0001
0010
0001
0100
0001
1000
0000
0100
0000
,
0010
0000
0001
0000
0000
0000
1000
0000
0100
0000
1000
0001
1000
0000
0001
0000
0100
0000
0010
0000
1000
0000
0200
0000
0000
0000
0000
0000
0000
0000
0000
0000
,
0300
0000
0000
0000
;

//--------------- dance-double - HellKiteChaos ----------------
#NOTES:
     dance-double:
     HellKiteChaos:
     Challenge:
     16:
     0,0,0,0,0:
00000000
00000000
00000000
00000000
,
00000000
00000000
00000000
00000000
,
00001000
00010000
01000000
00000000
10000000
00010000
00100000
01000000
,
00000000
00100000
01000000
00100000
00010000
10000000
00010000
01000000
00100000
00010000
00001000
00000100
00000010
00001000
00000010
00000100
,
00000001
00000000
00000010
00000100
00001000
00000000
00001000
00000001
00000010
00000001
00000010
00000001
00001000
00000000
00000001
00001000
,
00000001
00000000
00000100
00000010
00001000
00000000
00001000
00000010
00000100
00000001
00000100
00000010
00010000
00000000
00001000
00000000
,
00010000
00000000
00001000
01000000
00100000
00000000
10000000
00010000
10000000
00100000
01000000
00010000
00100000
00000000
01000000
00000000
,
00100000
00000000
00000000
00000000
00010000
00000000
00000000
00000000
10000000
00000000
01000000
00000000
00100000
00000000
00010000
10000000
00020000
00000000
01000000
00000000
00000000
00000000
01000000
00000000
00000000
00000000
01030000
00000000
00000000
00000000
00100000
00000000
,
10000000
00000000
00100000
01000000
00010000
00000000
10000000
01000000
00010000
00001000
00010000
00001000
00010000
00000000
00000100
00000000
,
00000010
00000000
00000001
00001000
00000100
00000000
00000010
00000001
00001000
00000001
00000000
00000100
00000010
00000000
00000100
00000000
,
00000010
00000000
00001000
00000010
00000001
00000000
00000010
00000100
00000001
00001000
00000010
00000100
00000010
00000000
00000100
00000000
,
00001000
00000000
00000000
00000000
00010000
00000000
00100000
00000000
01000000
00000000
00000000
00000000
00100000
00000000
10000000
00010000
20000000
00000000
01000000
00000000
00000000
00000000
01000000
00000000
00000000
00000000
31000000
00000000
00000000
00000000
01000000
00000000
,
00100000
00000000
00001000
00000000
00010000
00001000
00000000
00010000
01000000
10000000
01000000
00010000
00001000
00000000
00010000
00000000
,
00011000
00000000
00001000
00000000
00010000
00001000
00000000
00000010
00000001
00000100
00000000
00000010
00001000
00000000
00000100
00000000
,
00010000
00000000
00000000
00000000
00011000
00000000
00000000
00000000
00001000
00000000
00100000
00000000
00000000
00000000
01000000
00000000
00100000
00000000
00010000
00000000
10000000
00000000
00000000
00000000
00100000
00000000
00000000
00000000
01000000
00010000
01000000
00010000
,
01000000
00000000
00000000
00000000
00001000
00010000
00001000
00010000
00001000
00000000
00000000
00000000
00010000
00000010
00010000
00000010
00010000
00000000
00000010
00000000
00000100
00000000
00000001
00000000
00001000
00000000
00000010
00000000
00001000
00000000
00000100
00000000
,
00000210
00000000
00000310
00000001
00001000
00000000
00000010
00000100
00000001
00001000
00000010
00000100
00000001
00000000
00001000
00000000
,
00001200
00000000
00001300
00000100
00000010
00000000
00001000
00000010
00000001
00001000
00000000
00001000
00000000
00001000
00000010
00000100
,
00000001
00000000
00000100
00000010
00001000
00000000
00000010
00010000
00001000
00100000
00001000
00010000
01000000
00000000
11000000
00000000
,
10010000
00000000
10000000
00100000
01000000
00010000
00010000
00010000
10000000
10000000
10000000
01000000
00100000
00000000
00000000
00000000
,
00010000
00000000
00100000
00001000
00010000
00000000
00001000
00000100
00001000
00010000
00000010
00010000
00001000
00000000
00010000
00000000
,
01000000
00000000
00100000
00001000
00010000
00000000
00001000
00000100
00000010
00010000
00000000
00001000
00000000
00100000
00000000
00100000
,
01000000
00000000
00100000
01000000
10000000
00000000
10000000
01000000
10000000
00010000
00000000
00010000
00000000
00010000
10000000
00010000
,
01000000
00000000
00000000
00000000
00100000
00000000
10000000
00000000
00100000
00000000
01000000
00100000
01000000
00000000
00100000
00000000
01000000
00000000
00010000
00000000
10000000
00000000
00010000
00000000
10010000
00000000
00000000
00000000
00000000
00000000
00000000
00000000
,
21000000
00000000
30010000
00010000
01000000
00001000
00010000
00000010
,
00000100
00000000
00001001
00000000
00000001
00000010
00001000
00010000
,
01000000
00000000
10000000
00000000
00100000
01000000
01010000
00010000
,
01000000
00000000
00100000
00000000
01000000
00000000
00001000
00000000
00010000
00000000
00001000
00000000
00100000
00000000
01000000
00100000
01000000
00000000
10000000
00000000
00010000
00000000
00100000
00000000
01000000
00000000
10000000
00000000
00100000
00000000
01000000
00000000
,
00010000
00000000
01000000
00000000
01010000
00000000
00010000
01000000
00100000
10000000
00010000
01000000
00100000
10000000
00010000
10000000
,
01000000
00000000
01000000
00000000
11000000
00000000
00100000
00010000
01000000
00001000
00010000
00000010
00000100
00000001
00000010
00000100
,
00001000
00000000
00001000
00000000
00001100
00000000
00000100
00010000
00001000
00000100
00000010
00001000
00000100
00000010
00000001
00000100
,
00000010
00000000
00000010
00000000
00001000
00000001
00001000
00000001
00001000
00000000
00000100
00000000
00000010
00000001
00000010
00000001
00000010
00000000
00000100
00000000
00001000
00000001
00001000
00000001
00001000
00000000
00000010
00000000
00000100
00000000
00000001
00000000
,
00001000
00000000
00000010
00000100
00000110
00000000
00000100
00000001
00001000
00000100
00000010
00000001
00000100
00001000
00010000
00100000
,
10000000
00000000
00100000
01000000
01100000
00000000
01000000
00010000
10000000
01000000
00000000
01000000
00000000
00100000
00000000
00010000
,
01000000
00000000
00100000
01000000
01100000
00000000
01000000
00100000
10000000
01000000
00010000
00001000
00000010
00000001
00001000
00000001
,
00001000
00000000
00000010
00000100
00000001
00000100
00000001
00000010
00000001
00000100
00000010
00001000
00000200
00000000
00000010
00000000
,
00000310
00000000
00000001
00001000
00001001
00000000
00000001
00000100
00001000
00000100
00000001
00000100
00001000
00000000
00000100
00000000
,
00000010
00000000
00010000
00001000
00011000
00000000
00010000
01000000
10000000
00100000
01000000
00100000
10000000
01000000
00100000
00010000
,
10000000
00000000
00010000
01000000
10000000
00000000
01000000
00010000
00100000
00010000
01000000
10000000
01000000
00010000
00100000
01000000
,
10000000
00010000
01000000
00100000
10000000
00000000
00100000
01000000
00010000
00010000
10000000
01000000
00100000
00000000
00000000
00000000
,
00010000
00100000
00000000
00010000
00100000
00001000
00100000
00010000
00000000
00100000
00000000
00001000
00010000
00000000
00001000
00000000
,
00010000
00000010
00000000
00010000
00000010
00001000
00000010
00010000
00000000
00001000
00000000
00010000
00000100
00000000
00000010
00000000
,
00000001
00000010
00000000
00000100
00001000
00000100
00000010
00000001
00000000
00000100
00000000
00000010
00001000
00000000
00000001
00000000
,
00000100
00000000
00000010
00000000
00000000
00000000
00000100
00000010
00000100
00000000
00000010
00000000
00000000
00000000
00001000
00000010
00001000
00000000
00000010
00000000
00000000
00000000
00001000
00000000
00000010
00000000
00000001
00000000
00000010
00000000
00001000
00000000
,
00000001
00000100
00000010
00010000
00001000
00000000
01000000
00100000
01000000
00010000
00100000
00010000
01000000
00010000
00100000
00010000
,
10000000
00000000
01000000
00100000
00010000
00000000
10000000
00100000
10000000
01000000
00000000
01000000
00000000
01000000
00000000
01000000
,
00100000
00000000
00010000
00100000
00001000
00000000
00000010
00000001
00001000
00000010
00000100
00000001
00001000
00000000
00000010
00000000
,
00000100
00000000
00000000
00000000
00000010
00000000
00010000
00000000
00001000
00000000
00010000
00001000
00010000
00000000
00001000
00000000
00100000
00000000
00010000
00000000
01000000
00000000
02200000
00000000
00000000
00000000
00000000
00000000
00000000
00000000
00000000
00000000
,
03300000
00000000
00000000
00000000
;
