#TITLE:PINK DINOSAUR;
#SUBTITLE:;
#ARTIST:PAPAYA;
#TITLETRANSLIT:;
#SUBTITLETRANSLIT:;
#ARTISTTRANSLIT:;
#GENRE:;
#CREDIT:;
#MUSIC:PINK DINOSAUR.mp3;
#BANNER:PINK DINOSAUR.png;
#BACKGROUND:PINK DINOSAUR-bg.png;
#CDTITLE:;
#SAMPLESTART:0.000;
#SAMPLELENGTH:0.000;
#SELECTABLE:YES;
#OFFSET:-0.050;
#BPMS:0.000=136.055;
#STOPS:;
#DISPLAYBPM:136.000;
#BGCHANGES:;
#FGCHANGES:;

//--------------- dance-single - HellKiteChaos ----------------
#NOTES:
     dance-single:
     HellKiteChaos:
     Challenge:
     11:
     0,0,0,0,0:
0000
0000
0000
0000
,
0000
0000
0000
0000
,
0000
0000
0000
0000
,
0000
0000
0000
0000
,
0001
0000
1000
0000
0200
0000
0000
0000
0010
0000
0000
0010
0000
0000
0310
0000
,
0001
0000
1000
0000
0020
0000
0000
0000
0100
0000
0000
0100
0000
0000
0130
0000
,
0001
1000
0100
0000
1000
0001
0100
0000
,
0010
0100
0010
0100
0002
0000
1003
0000
,
0001
0000
0001
0000
1000
0000
0100
0000
2000
0000
0000
3001
0000
1000
0010
1000
,
0010
0000
0010
0000
1000
0000
0001
0000
0020
0000
0000
0031
0000
0000
1000
0000
,
0100
0000
0100
0000
0010
0000
0001
0000
2000
0000
0000
3010
0000
0100
0001
0100
,
0001
0000
1000
0000
1000
0000
0010
0000
0100
0000
0000
0100
0000
0000
0100
0000
,
0001
0000
0001
0000
1000
0000
0100
0000
2000
0000
0000
3001
0000
0010
0001
0010
,
0001
0000
1000
0000
1000
0000
0010
0000
0200
0000
0000
0301
0000
0000
0100
0000
,
0010
0000
0010
0000
1000
0000
0001
0000
0200
0000
0000
0310
0000
1000
0001
1000
,
0001
1000
0100
1000
1001
0000
0000
0000
,
0001
0100
0000
0010
0100
0001
0000
0010
,
0001
0100
0010
0100
0001
1000
0000
0001
,
1000
0100
0000
0100
1000
0010
0000
0010
,
0100
0010
1000
0100
0010
0100
1000
0010
,
0100
0001
0000
0001
0010
0001
0000
0100
,
0010
0100
0001
0010
0001
0000
0100
0000
,
0010
1000
0000
0100
1000
0010
0000
0100
,
0010
1000
0100
0010
0001
0000
1000
0000
,
0001
0100
1000
0100
0001
0100
1000
0100
,
0001
0000
0102
0100
0203
0000
0310
0000
,
1000
0010
0001
0010
1000
0010
0001
0010
,
1000
0000
1020
0000
0130
0100
0110
0000
,
0100
0001
0010
0001
0100
0001
0010
0001
,
0100
0100
0010
0010
1000
0100
1200
0000
,
1300
0010
0010
0100
0100
0010
0010
1000
,
0001
0000
0000
0000
1000
0000
0000
0000
1001
0000
0000
1000
0001
0000
1000
0000
,
0001
0000
0100
0000
0010
1000
0000
0010
1000
0000
0100
0000
0010
0001
0000
0010
,
0001
1000
0001
0100
0010
1000
1001
0000
,
1000
0000
0100
0000
0010
0001
0000
0010
0001
0000
0100
0000
0010
1000
0000
0010
,
1000
0000
0001
0000
1000
0000
0001
0000
0200
0000
0000
0320
0000
0000
1030
0000
,
0001
0000
0010
0000
0100
1000
0000
0100
1000
0000
0010
0000
0100
0001
0000
0100
,
0001
1000
0001
0010
0100
1000
1001
0000
,
1000
0000
0010
0000
0100
0001
0000
0100
0001
0000
0010
0000
0100
1000
0000
0100
,
1000
0000
0001
0000
1000
0000
0001
0000
0020
0000
0000
0230
0000
0000
1300
0000
,
0001
0000
0001
0000
1000
0000
0100
0000
2000
0000
0000
3001
0000
1000
0010
1000
,
0010
0000
1000
0000
1000
0000
0001
0000
0020
0000
0000
0031
0000
0000
1000
0000
,
0100
0000
0100
0000
0010
0000
0001
0000
2000
0000
0000
3010
0000
0100
0001
0100
,
0001
0000
0100
0000
0100
0000
0010
0000
0100
0000
0000
0100
0000
0000
0100
0000
,
0001
0000
0001
0000
1000
0000
0100
0000
2000
0000
0000
3001
0000
0010
0001
0010
,
0001
0000
1000
0000
1000
0000
0010
0000
0200
0000
0000
0301
0000
0000
0100
0000
,
0010
0000
0010
0000
1000
0000
0001
0000
0200
0000
0000
0310
0000
1000
0001
1000
,
0001
0000
1000
0000
0100
0000
1000
0000
0001
0000
0000
1001
0000
0000
1000
0000
,
0200
0000
0000
0000
,
0300
0000
0000
0000
;

//--------------- dance-double - HellKiteChaos ----------------
#NOTES:
     dance-double:
     HellKiteChaos:
     Challenge:
     12:
     0,0,0,0,0:
00000000
00000000
00000000
00000000
,
00000000
00000000
00000000
00000000
,
00000000
00000000
00000000
00000000
,
00000000
00000000
00000000
00000000
,
00010000
00000000
00001000
00000000
00000020
00000000
00000000
00000000
00000001
00000000
00000000
00000001
00000000
00000000
00000031
00000000
,
00000100
00000000
00000010
00000000
00002000
00000000
00000000
00000000
00000100
00000000
00000000
00000100
00000000
00000000
00003100
00000000
,
00001000
00000000
00000100
00000000
00020000
00000000
00000000
00000000
01000000
00000000
00000000
01000000
00000000
00000000
01030000
00000000
,
00100000
00010000
01000000
00100000
20000000
00000000
30010000
00000000
,
00010000
00000000
01000000
00000000
00001000
00000000
00010000
00000000
00000200
00000000
00000000
00000310
00000000
00000001
00001000
00000001
,
00000010
00000000
00000100
00000000
00000010
00000000
00000100
00000000
00002000
00000000
00000000
00003001
00000000
00000000
00000100
00000000
,
00000010
00000000
00010000
00000000
00001000
00000000
00100000
00000000
00020000
00000000
00000000
10030000
00000000
00100000
10000000
00010000
,
10000000
00000000
10000000
00000000
00010000
00000000
10000000
00000000
00020000
00000000
00000000
00230000
00000000
00000000
01300000
00000000
,
10000000
00000000
00100000
00000000
00010000
00000000
00100000
00000000
02000000
00000000
00000000
03010000
00000000
10000000
00100000
01000000
,
00010000
00000000
00100000
00000000
00010000
00000000
00100000
00000000
00002000
00000000
00000000
00013000
00000000
00000000
00000100
00000000
,
00000010
00000000
00000010
00000000
00000100
00000000
00001000
00000000
00000002
00000000
00000000
00000103
00000000
00000010
00001000
00000010
,
00001000
00000010
00001000
00000010
00020000
00000000
00030000
00000000
,
00001000
01000000
00000000
00100000
10000000
00010000
10000000
00000000
,
01000000
00000000
00000000
00100000
01000000
00000000
00100000
00000000
00010000
00000000
00100000
00000000
00101000
00000000
00000000
00000000
,
00001000
01000000
00001000
00100000
00001000
01000000
00010000
00100000
,
00001000
00000100
00000010
00001000
00000001
00000000
00000000
00000000
,
00001000
00000100
00000010
00000100
00002000
00000000
00003002
00000000
,
00000103
00000000
00000000
00000010
00001000
00000000
00000001
00000000
00000100
00000000
00000000
00000000
00000000
00000000
00000000
00000000
,
00000010
00010000
00000100
00001000
00000010
00000100
00000001
00000010
,
00001000
00010000
00001000
00010000
01000000
00000000
00000000
00000000
,
01000000
10000000
01000000
00010000
01000000
10000000
01000000
00010000
,
00001000
00000010
00000001
00001001
,
00000001
00000100
00001000
00000100
00000001
00000100
00001000
00020000
,
00000000
00230000
00000000
20300000
00000000
30020000
00000000
10030000
,
01000000
01000000
00100000
00010000
10000000
00100000
01000000
00001000
,
00010000
00000000
01000000
10000000
00100000
00010000
00000000
00001000
,
00000100
00000010
00000010
00000100
00000010
00000010
00000100
00000001
,
00001000
00000000
00000000
00000000
00000001
00000000
00000000
00000000
00001001
00000000
00000000
00000001
00001000
00000000
00000001
00000000
,
00001001
00001000
00000100
00000000
00001001
00000001
00000100
00000000
,
00000010
00000000
00000000
00000100
00000010
00000000
00010000
00000000
00001000
00000000
00000000
00001000
00000000
00000000
00001000
00000000
,
01000000
00000000
00100000
00000000
10000000
00010000
00000000
10000000
00010000
00000000
00100000
00000000
01000000
00100000
00000000
01000000
,
00100000
00000000
01000000
00000000
10000000
00000000
00010000
00000000
02000000
00000000
00000000
03000200
00000000
00000000
00010300
00000000
,
00010100
00010000
00000010
00000000
00001010
00000010
00000100
00000000
,
00000101
00000000
00000000
00001000
00000010
00000000
00000100
00000000
00000001
00000000
00000000
00000000
00000100
00000000
00000010
00000000
,
00001000
00000000
00000100
00000000
00010000
00000100
00010000
00000000
00001000
00000000
00100000
00000000
00010000
00100000
00010000
00000000
,
10000000
00000000
00100000
00000000
00010000
00000000
00100000
00000000
10000000
00000000
00000000
00010000
00000000
00000000
10000000
00000000
,
00010000
00000000
00010000
00000000
01000000
00000000
00010000
00000000
00200000
00000000
00000000
00301000
00000000
00100000
00001000
00010000
,
00001000
00000000
00001000
00000000
00010000
00000000
00000100
00000000
00002000
00000000
00000000
00003001
00000000
00000000
00000100
00000000
,
00000010
00000000
00000001
00000000
00000010
00000000
00000100
00000000
00000020
00000000
00000000
00001030
00000000
00000010
00001000
00000001
,
00000100
00000000
00000100
00000000
00000010
00000000
00000100
00000000
00000200
00000000
00000000
00000302
00000000
00000000
00001003
00000000
,
00000100
00000000
00000100
00000000
00010000
00000000
00001000
00000000
00000200
00000000
00000000
00001300
00000000
00010000
00001000
00010000
,
00001000
00000000
00010000
00000000
00001000
00000000
00100000
00000000
00020000
00000000
00000000
00130000
00000000
00000000
10000000
00000000
,
00100000
00000000
00100000
00000000
00010000
00000000
01000000
00000000
00200000
00000000
00000000
10300000
00000000
00010000
10000000
00010000
,
10000000
00000000
10000000
00000000
10000000
00000000
01000000
00000000
00200000
00000000
00000000
00320000
00000000
00000000
01030000
00000000
,
20020000
00000000
00000000
00000000
,
30030000
00000000
00000000
00000000
;
