#VERSION:0.83;
#TITLE:PARANOIA survivor MAX;
#SUBTITLE:;
#ARTIST:290;
#TITLETRANSLIT:;
#SUBTITLETRANSLIT:;
#ARTISTTRANSLIT:;
#GENRE:;
#CREDIT:;
#MUSIC:PARANOIA survivor MAX.mp3;
#BANNER:PARANOIA survivor MAX.png;
#BACKGROUND:PARANOIA survivor MAX-bg.png;
#CDTITLE:;
#SAMPLESTART:69.740;
#SAMPLELENGTH:12.000;
#SELECTABLE:YES;
#OFFSET:-0.268;
#BPMS:0.000=290.000
,88.000=145.000
,92.000=290.000
,148.000=145.000
,152.000=290.000
,174.000=145.000
,178.000=290.000
,252.000=72.500
,254.000=290.000
,374.000=145.000
,378.000=290.000
;
#STOPS:;
#SPEEDS:0.000=1.000=0.000=0;
#SCROLLS:0.000=1.000,
252.000=10.000,
252.250=7.000,
252.500=5.000,
252.750=3.000,
253.000=1.500,
253.250=1.000
;
#TICKCOUNTS:0.000=4;
#TIMESIGNATURES:0.000=4=4;
#LABELS:0.000=Song Start;
#COMBOS:0.000=1;
#DISPLAYBPM:145.000:290.000;
#ORIGIN:;
#PREVIEWVID:;
#JACKET:;
#CDIMAGE:;
#DISCIMAGE:;
#BGCHANGES:;
#FGCHANGES:;

//--------------- dance-single - HellKiteChaos ----------------
#NOTEDATA:;
#STEPSTYPE:dance-single;
#DESCRIPTION:HellKiteChaos;
#DIFFICULTY:Hard;
#METER:13;
#RADARVALUES:0,0,0,0,0;
#NOTES:
0000
0000
0000
0000
,
0000
0000
0000
0000
,
0000
0000
0000
0000
,
0000
0000
0000
0000
,
0000
0000
0000
0000
,
0000
0000
0000
0000
,
0000
0000
0000
0000
,
0000
0000
0000
0000
,
1000
0000
0001
1000
0001
0000
0100
0000
,
0001
0100
0001
0000
1000
0100
1000
0000
,
0001
0000
0100
0010
0100
0000
0001
0000
,
1001
0100
0110
1000
,
0001
1000
0010
0000
1000
0001
1000
0000
,
0001
0000
0100
0010
1000
0000
0001
0000
,
1000
0110
0001
0110
,
2002
0000
3003
0000
0000
1000
0001
0000
,
1000
1100
0001
0101
,
0100
0010
1000
0000
0000
0010
0000
1000
,
0001
1000
0100
0000
0010
0001
0010
0000
,
0001
0110
1000
1001
,
0002
0203
0302
2003
,
3010
0000
0100
0010
0000
0010
1000
0001
,
0200
0000
0000
0000
0301
0000
0000
0000
0000
1000
0000
1000
0000
1000
0000
1000
,
0001
0100
0001
0000
1000
0000
0010
0000
,
1000
0000
0001
0000
1000
0100
1000
0000
,
0001
0000
1000
0000
0001
0010
0001
0000
,
1000
0000
0001
0000
1000
0010
1000
0000
,
0001
1000
0001
0100
,
0010
1000
0001
0100
,
0010
0000
1000
0001
0000
1000
0001
0000
,
0100
0000
0010
1000
0010
0000
1000
0000
,
1001
0101
1001
1010
,
0001
1000
0100
1000
,
1001
0011
1001
1100
,
0001
0010
0001
1000
,
1010
1001
0101
1001
,
0001
0000
0100
0010
0000
0010
1000
0000
,
0001
1000
0001
1000
0000
0000
0010
0100
0000
0001
1000
0000
0000
0000
0000
0000
,
2001
0100
0000
0010
,
0000
0000
3100
0000
0010
0000
0001
1000
,
0001
0000
0000
0001
0100
0000
0000
0100
,
0010
0000
0000
0010
1000
0000
0001
1000
,
0001
0000
0100
0000
0001
1000
0001
0000
,
0010
0100
1001
0110
,
1001
0000
0110
0000
0001
0000
0000
0100
,
0010
0000
1000
0010
1000
0010
1000
0000
,
0000
0001
0100
0000
0000
0100
0010
0000
,
1000
0001
1000
0001
1000
0000
0000
0001
,
0010
0000
0000
0010
0100
0000
0000
0100
,
1000
0000
0000
1000
0001
0000
0100
0001
,
0100
0001
0100
0000
0000
0010
1000
0000
,
0001
1000
0001
1000
0000
0100
0010
0000
,
0000
0100
0010
0000
0000
0001
1000
0000
,
0000
0001
1000
0000
0000
0001
0100
0000
,
0000
0001
0100
0000
0000
0010
1000
0000
,
0000
0010
1000
0000
0000
0001
0010
0000
,
0000
0001
0010
0000
0000
0100
1000
0000
,
0001
0100
0001
0000
1000
0000
0001
1000
,
0001
0000
1000
0000
0001
0010
0001
0000
,
1000
0000
0001
1000
0001
0000
1000
0000
,
0001
0100
0001
0000
1000
0000
0001
1000
,
0001
0000
1000
0000
0001
0010
0001
0000
,
1000
0000
0001
1000
0001
0000
1000
0000
,
0002
0000
0000
1003
0001
0000
0101
0000
,
1000
0000
1100
0000
0001
0100
0010
0000
,
1000
0100
0010
0000
0001
0000
1000
0000
,
0100
1000
1002
0203
,
0320
1030
0001
0100
,
0001
0000
1000
0010
,
1000
0001
0101
0000
,
1100
0000
1001
0001
,
0010
0000
0100
0000
1000
0001
1000
0000
,
0001
0100
0001
0000
0000
0100
0010
0000
,
2000
0000
3001
0000
1000
0100
0010
0000
,
0001
1000
0001
0000
1000
0000
0001
0000
,
1000
1001
0101
0100
,
0001
0100
0010
1010
,
0000
0101
0000
0000
0000
1001
0000
1000
,
0000
0001
1000
0000
1001
0000
0101
0000
,
1001
1100
1000
0100
,
0010
0000
0001
0000
1000
0000
0001
0100
,
0000
0010
1000
0000
0001
1000
0001
0000
,
0100
0001
1000
0001
,
1001
0000
0001
0010
,
0100
0000
1000
0000
0001
0000
0100
0010
,
0000
0100
0010
0000
1000
0000
0001
0010
,
0000
0010
0001
0000
1000
0000
0100
1000
,
0000
1000
0100
0000
1000
0000
0001
0000
,
0100
0000
0010
0000
1000
0000
0001
0100
,
0000
0010
1000
0000
0001
1000
0001
0000
,
0100
0010
0100
0000
0001
0000
0010
0000
,
0001
1000
0100
0010
,
0001
0000
0100
0000
0010
0000
1000
0001
,
0000
0000
1000
0000
0001
0000
0000
0000
1000
0000
0000
0100
0000
0000
0001
0000
,
0000
0100
0000
0000
1000
0000
0001
0000
1000
0000
0000
0000
0001
0000
0000
0000
,
0100
0001
0010
0001
,
1000
0001
1000
0001
1000
0000
0000
0001
,
0100
0000
0000
0010
1000
0000
0000
0001
,
0010
0000
0000
0100
1000
0000
0000
0001
,
0100
0000
0000
0010
1000
0000
0000
0100
,
0010
0000
0000
0001
1000
0000
0010
0000
,
0100
0001
1000
0001
,
0000
0000
0000
0000
1000
0100
1000
0100
,
1000
0000
0001
0100
0000
0001
0100
0000
,
0010
1000
0001
0100
0000
0000
0220
0000
,
0000
0000
0000
0000
,
0000
0000
0000
0000
,
0330
0000
0000
0000
;

//--------------- dance-single - HellKiteChaos ----------------
#NOTEDATA:;
#STEPSTYPE:dance-single;
#DESCRIPTION:HellKiteChaos;
#DIFFICULTY:Challenge;
#METER:18;
#RADARVALUES:0,0,0,0,0;
#NOTES:
0000
0000
0000
0000
,
0000
0000
0000
0000
,
0000
0000
0000
0000
,
0000
0000
0000
0000
,
0000
0000
0000
0000
,
0000
0000
0000
0000
,
0000
0000
0000
0000
,
0000
0000
0000
0000
,
1000
0100
0010
0100
1000
0001
1000
0000
,
0001
0100
0010
0100
0001
1000
0001
0000
,
1000
0100
0010
0001
0100
0010
1000
0001
,
1000
1001
1100
0011
,
0010
0100
1000
0100
0010
0001
1000
0100
,
0010
0000
0000
0100
0000
0000
1000
0000
0000
0001
0000
0000
0010
0000
0000
0100
0000
0000
1000
0000
0001
0000
1000
0000
,
0001
0011
1100
0101
,
0001
0100
0010
1000
0100
0010
0001
0000
,
1000
0001
0010
0100
0010
0001
1000
0010
,
0100
0001
1000
0000
0000
0001
0100
1000
,
0100
0001
1000
0010
0100
0001
1000
0010
,
0100
1001
0110
1001
,
0001
0010
0100
1000
0010
0100
0001
1000
,
0100
0000
0000
0010
0000
0000
0001
0000
0000
0000
0000
0000
0010
0000
0000
0100
0000
0000
1000
0000
0001
0000
1000
0000
,
0010
0000
0000
0000
0110
0000
0000
0000
0000
0010
0000
0010
0000
0010
0000
0010
,
1000
0000
0000
0100
0000
0000
0010
0000
0000
0001
0000
0000
1000
0000
0001
0000
1000
0000
0001
0000
0000
0100
0000
0000
,
0010
0000
0000
1000
0000
0000
0100
0000
0000
0010
0000
0000
0001
0000
1000
0000
0001
0000
1000
0000
0000
0001
0000
0000
,
0100
0000
0000
0010
0000
0000
1000
0000
0000
0100
0000
0000
0010
0000
0100
0000
0010
0000
0100
0000
0000
0010
0000
0000
,
0001
0000
0000
0100
0000
0000
0010
0000
0000
1000
0000
0000
0001
0000
0010
0000
0001
0000
0010
0000
0000
0100
0000
0000
,
1000
0000
0000
0010
0000
0000
0100
0000
0000
0001
0000
0000
1000
0000
0100
0000
1000
0000
0100
0000
0000
0010
0000
0000
,
0001
0000
0000
0100
0000
0000
0010
0000
0000
1000
0000
0000
0001
0000
0100
0000
0001
0000
0100
0000
0000
0010
0000
0000
,
1000
0000
0001
0100
0000
0010
1000
0001
,
0010
0100
0010
0000
0000
0010
0100
1000
,
0001
0000
0010
0000
0001
0000
0010
0000
0000
0100
0000
0000
1000
0000
0100
0000
1000
0000
0100
0000
0000
0010
0000
0000
,
0001
1000
0010
0100
0000
0010
0100
0001
,
1000
0000
0100
0000
1000
0000
0100
0000
0000
0010
0000
0000
0001
0000
0010
0000
0001
0000
0010
0000
0000
0001
0000
0000
,
1000
0010
0100
0001
0000
0100
0010
1000
,
0001
0000
0010
0000
0001
0000
0010
0000
0000
0001
0000
0000
1000
0000
0010
0000
1000
0000
0010
0000
0000
1000
0000
0000
,
0001
1000
0010
0100
0000
0100
0000
0000
,
0010
0100
0010
1000
0000
0000
0010
1000
0000
0001
0100
0000
0000
0000
0110
0000
,
0001
0000
0100
0000
0001
0100
0000
0000
0010
0000
1000
0000
0010
1000
0000
0000
,
0001
0000
1000
0000
0001
1000
0000
0000
0001
0000
0010
0000
0100
0000
0010
0000
,
0001
1000
0000
0000
0010
0000
1000
0000
0100
0010
0000
0000
0010
0000
0001
0000
,
0100
0010
0000
0000
0010
0000
1000
0000
0100
0010
0000
0000
0010
0000
0001
0000
,
0100
0000
0001
0000
0100
0001
0000
0000
0010
0000
0001
0000
0100
0010
0000
0000
,
0010
1000
0100
0010
0001
0000
0011
0000
,
1001
0000
1100
0000
0100
1000
0100
1000
,
0001
1000
0000
0000
0001
0000
0100
0000
0001
0000
0100
0000
0010
1000
0000
0000
,
0010
0000
0100
0000
0010
0100
0000
0000
0001
0000
1000
0000
0001
1000
0000
0000
,
0001
0000
0010
0000
0001
0010
0000
0000
0100
0000
1000
0000
0100
0000
1000
0000
,
0100
0010
0000
0000
0001
0000
1000
0000
0100
1000
0000
0000
0001
0000
1000
0000
,
0001
0100
0000
0000
0010
0000
1000
0000
0010
0100
0000
0000
0001
0000
0100
0000
,
0001
0000
0100
0000
0010
1000
0000
0000
0001
0000
1000
0000
0010
0100
0000
0000
,
0001
0000
0100
0000
0001
1000
0001
0000
1000
0000
0100
0000
1000
0001
1000
0000
,
0001
0000
1000
0000
0010
0100
0010
0000
1000
0000
0001
0000
0100
0010
0100
0000
,
0001
0000
1000
0000
0010
0100
0010
0000
1000
0000
0001
0000
0010
0100
0010
0000
,
0001
0000
1000
0000
0100
0010
0100
0000
1000
0000
0001
0000
0100
0001
0100
0000
,
0010
0000
0100
0000
0001
1000
0001
0000
1000
0000
0010
0000
1000
0010
1000
0000
,
0001
0000
1000
0000
0100
1000
0100
0000
1000
0000
0001
0000
0010
0100
0010
0000
,
0100
0000
1000
0000
0100
0000
1000
0000
0100
1000
0100
0000
1000
0000
0001
0000
,
1000
0000
0001
0000
0010
0001
0010
0000
0001
0000
0100
0000
0001
0000
0100
0000
,
0001
1000
0001
0000
1000
0000
0010
0000
1000
0000
0010
0000
0100
0010
0100
0000
,
0001
0000
1000
0000
0001
0000
1000
0000
0100
1000
0100
0000
0010
0000
0100
0000
,
0010
0000
0100
0000
0010
0001
0010
0000
0001
0000
1000
0000
0001
0000
1000
0000
,
0001
0100
0001
0000
1000
0000
0010
0000
0100
0000
0001
0000
1000
0000
2002
0000
,
0000
0000
0000
3003
1000
0100
0010
0100
,
1000
0001
1000
0000
0001
0100
0010
0100
,
0001
1000
0001
0000
0010
1000
0010
0001
,
0100
0000
0000
0010
0000
0000
1000
0000
0001
0000
0100
0000
0010
0000
0000
0000
0000
0000
0101
0000
0000
0000
0000
0000
,
0001
0000
1010
0000
1000
0010
0100
0010
,
0001
0010
1000
0010
0100
0001
1000
0100
,
0010
0001
0010
0001
1000
0100
0010
0000
0000
1100
0000
0000
,
1001
0000
0011
0000
0110
0000
1000
0001
,
1000
0000
1001
0000
0001
0010
1000
0010
,
0001
0000
0010
0000
0100
1000
0000
0000
1000
0000
0100
0000
0010
0001
0000
0000
,
0001
0000
0010
0000
0100
1000
0000
0000
1000
0000
0001
0000
0100
0000
0010
0000
,
1000
0000
0000
0100
0000
0000
0010
0000
0001
0000
0010
0000
0001
0000
0000
0000
0000
0000
0011
0000
0000
0000
0000
0000
,
1100
0000
0101
0000
1000
0010
0100
0000
,
0001
0100
0010
1000
0001
0000
0101
0000
,
0000
1010
0000
0000
0000
0101
0000
1010
,
0000
0101
1010
0000
0011
0000
1100
0000
,
0011
0000
0101
0000
0100
1000
0100
0001
,
0100
0000
0010
0000
0001
0000
0010
0000
0100
0000
0001
0000
1000
0000
0001
0010
,
0001
0000
1000
0000
0100
1000
0100
0000
0010
0000
1000
0000
0010
0000
0100
0000
,
0001
0100
0010
1000
0010
0001
0010
1000
,
0010
0000
0100
0000
0010
0000
0001
0000
1000
0001
1000
0000
0001
0000
0100
0000
,
0001
0000
0010
0000
1000
0000
0010
0000
0001
0000
1000
0000
0010
0000
0100
0010
,
0100
0000
0001
0000
1000
0001
1000
0000
0001
0000
0100
0000
0100
0000
0010
0000
,
0000
0100
0010
0100
0001
0001
1000
0010
,
0000
0100
0010
0100
0001
0100
1000
0100
,
0010
0000
0100
0000
0010
0000
0001
0000
0010
0000
1000
0000
0001
0000
0100
0001
,
0100
0000
0010
0000
0001
0010
0001
0000
0010
0000
1000
0000
0001
0000
0010
0000
,
0100
0001
0100
1000
0010
0100
1000
0001
,
0010
0000
1000
0000
0001
0000
0010
0000
1000
0010
1000
0000
0010
0000
0100
0000
,
0010
0000
0001
0000
1000
0000
0001
0000
0100
0000
0010
0000
1000
0000
0001
1000
,
0001
0000
1000
0000
0100
0010
0100
0000
1000
1000
0100
0010
0001
0000
0100
0100
,
0001
1000
1000
0010
0100
0100
0001
1000
0001
0000
0100
0000
1000
0000
0100
0000
,
0001
0100
1000
0100
0001
0100
1000
0100
,
0001
0000
1000
0000
0001
0000
1000
0000
0001
0000
1000
0000
0001
0000
0000
0000
0000
0000
1000
0000
0000
0100
0000
0000
,
0001
0000
1000
0010
0001
0000
1000
0001
,
1000
0001
1000
0000
0001
0100
0010
0100
,
0001
0010
0100
0010
0001
0100
0010
1000
,
0100
1000
0010
0100
0001
0000
0101
0000
,
1010
1001
0101
0110
,
0000
0000
0000
0000
0100
0100
0100
0100
,
0100
0000
0001
1000
0000
0001
1000
0000
,
0010
0010
0010
0010
0000
0000
2002
0000
,
0000
0000
0000
0000
,
0000
0000
0000
0000
,
3003
0000
0000
0000
;

//--------------- dance-double - HellKiteChaos ----------------
#NOTEDATA:;
#STEPSTYPE:dance-double;
#DESCRIPTION:HellKiteChaos;
#DIFFICULTY:Challenge;
#METER:14;
#RADARVALUES:0,0,0,0,0;
#NOTES:
00000000
00000000
00000000
00000000
,
00000000
00000000
00000000
00000000
,
00000000
00000000
00000000
00000000
,
00000000
00000000
00000000
00000000
,
00000000
00000000
00000000
00000000
,
00000000
00000000
00000000
00000000
,
00000000
00000000
00000000
00000000
,
00000000
00000000
00000000
00000000
,
00002000
00000000
00100000
00000000
00103000
00010000
00200000
00000000
,
00320000
00000000
01000000
00000000
01030000
00010000
01000000
00000000
,
00100000
00000000
10000000
00100000
00000000
00100000
01000000
00000000
,
00010000
01000000
01001000
00000000
,
00001000
00000000
00001000
00010000
00000000
00010000
00000100
00000000
,
00000010
00000100
00000010
00000000
00000001
00000010
00000001
00000000
,
00000100
00001000
00010000
00000010
,
00000210
00000000
00000000
00000310
,
00000100
00000000
00000010
00001000
00000000
00000010
00010000
00000000
,
00001000
00000000
00100000
00010000
00000000
00100000
00001000
00100000
,
00010000
10000000
00010000
00000000
10000000
01000000
10000000
00000000
,
01000000
00100000
00110000
00010000
,
01000000
00000100
00010000
00001000
,
00100000
00001000
00010000
00000000
00000000
00001000
00010000
00000100
,
00000010
00000000
00000000
00000000
00000110
00000000
00000000
00000000
00000000
00000010
00000000
00000010
00000000
00000010
00000000
00000010
,
00000100
00000000
00000010
00000001
00000000
00001000
00000100
00000000
,
00000010
00000000
00000001
00000100
00000000
00000010
00001000
00000000
,
00000100
00000000
00010000
00001000
00020000
00000000
00031000
00000000
,
00100000
00000000
00010000
00100000
00020000
00000000
10030000
00000000
,
00100000
00000000
01000000
00010000
02000000
00000000
03001000
00000000
,
00010000
00000000
00000010
00001000
00000020
00000000
00000130
00000000
,
00000001
00000000
00000100
00000001
00000000
00000001
00000100
00000000
,
00002020
00000000
00003030
00001010
,
00000010
00010000
00001000
00010000
00000010
00010000
00001000
00000000
,
00100000
00000000
00010000
10000000
00000000
10000000
01000000
00000000
,
00100000
00010000
00100000
01000000
00100000
00010000
00100000
00000000
,
01000000
00000000
10000000
01000000
00000000
01000000
00010000
00000000
,
00001000
00000010
00000100
00000010
00001000
00000010
00000100
00000000
,
00001000
00000000
00000001
00001000
00000000
00001001
00000000
00000000
,
00000001
00000100
00000001
00000100
00000000
00000000
00000010
00001000
00000000
00001000
00000100
00000000
00000000
00000000
00000000
00000000
,
00000100
01000000
00001000
00010000
,
00001000
00000000
00000100
00000000
00001000
00010000
00001000
00010000
,
00001000
00000000
00100000
00010000
00100000
00000000
00010000
01000000
,
00010000
00000000
01000000
00000100
01000000
00000000
00000100
00010000
,
00000100
00010000
00000100
00000000
00001000
00000010
00001000
00000000
,
00000010
00100000
00000010
00000000
00100000
00000000
01000000
00000000
,
00000010
00000000
00000100
00000000
00010000
00001000
00000000
00010000
,
00001000
00100000
00001000
00100000
00001000
00100000
00000000
00001000
,
00010000
00001000
00000000
00010000
00000100
00010000
00000000
00000100
,
00001000
00000100
00000000
00000100
01000000
00000100
01000000
00000100
,
01000000
00000000
00010000
01000000
00010000
00000000
00100000
00001000
,
00100000
00000000
00001000
00010000
00001000
00000000
00010000
00000010
,
00010000
00000010
00010000
00000000
00000010
00010000
00000010
00010000
,
00000010
00000100
00001000
01000000
,
00100000
10000000
01000000
00100000
,
00001000
00000010
00000001
00000100
,
00010000
01000000
00100000
10000000
,
01000000
00001000
00000100
00000010
,
00000001
00000100
00001000
01000000
,
00100000
00000000
00000000
10000000
01000000
00000000
01000000
00000000
,
00000000
00100000
00010000
00000000
00010000
00000000
00000000
00000010
,
00000100
00000000
00000100
00000000
00000000
00001000
00000001
00000000
,
00000001
00000000
00000000
00000100
00000010
00000000
00000010
00000000
,
00000000
00010000
00001000
00010000
00001000
00010000
00001000
00000000
,
00010000
00000000
01000000
00000000
10000000
00000000
00100000
02000000
,
00000000
00000000
00000000
03000000
00100000
01000000
00100000
01000000
,
00010000
10000000
00010000
00000000
10000000
01000000
00100000
00010000
,
10000000
01000000
00100000
00000000
00001000
00000000
00010000
00001000
,
00000000
00001000
00010000
00000000
00000100
00000000
00000100
00000000
,
00000100
00000010
00000001
00001000
,
00000001
00000100
00000000
00000010
00001000
00000001
00000100
00000000
,
00000010
00000010
00001001
00000100
,
00001001
00000010
00001001
00000000
,
00000000
00001001
00001001
00000001
,
00000100
00000010
00001000
00000000
00000000
00000010
00010000
00000000
,
00002000
00000000
00103000
00000000
01000000
00000000
10000000
00010000
,
00000000
10000000
01000000
00000000
00100000
00000000
00100000
00000000
,
00100000
00000000
00010000
00000000
01000000
00000000
00100000
10000000
,
00010000
10000000
01000000
00000000
00100000
00000000
00110000
00000000
,
00000000
00110000
00000000
00000000
00000000
00100000
00000000
01000000
,
00000000
00100000
00001000
00000000
00000100
00000000
00000010
00000000
,
00000110
00001001
00000001
00000100
,
00000010
00000000
00001000
00000000
00000100
00000000
00010000
00001000
,
00000000
00010000
00001000
00000000
00100000
00010000
10000000
00000000
,
00100000
10000000
00010000
00000000
01000000
00000000
00000100
00000000
,
00000010
00000001
00000100
00000010
,
00001000
00000000
00000100
00000000
00000010
00000000
00000001
00000100
,
00000000
00000010
00001000
00000000
00000010
00000000
00000000
00100000
,
00000000
01000000
02200000
00000000
,
03300000
00000000
01100000
00000000
01000000
10000000
00010000
01000000
,
00100000
10000000
00010000
00000000
01000000
00000000
00001000
00010000
,
00000000
00001000
00010000
00000000
00000010
00000000
00000100
00000000
,
00001000
00010000
00100000
01000000
,
00001000
00000000
00010000
00000000
00000010
00000000
00000100
00000001
,
00001000
00000000
00000100
00001000
00000001
00001000
00000001
00001000
,
00000000
00000000
00000000
00000000
00000001
00000000
00000000
00000000
00001000
00000000
00000000
00000100
00000000
00000000
00010000
00000000
,
00000000
00010000
00000000
00000000
00000100
00000000
01000000
00000000
00001000
00000000
00000000
00000000
00100000
00000000
00000000
00000000
,
01000000
00010000
00000100
00000010
,
00000001
00001000
00000001
00001000
00000001
00000000
00000000
00000001
,
00000100
00000000
00000000
00000100
00001000
00000000
00000000
00001000
,
00010000
00000000
00000000
00010000
00100000
00000000
00000000
00100000
,
10000000
00000000
00000000
10000000
01000000
00000000
00000000
01000000
,
00100000
00000000
00000000
00100000
00001000
00000000
00010000
00000000
,
00000100
00000010
00000100
00001000
,
00000000
00000000
00000000
00000000
00000100
00010000
00000100
00010000
,
00000100
00000000
01000000
00000100
00000000
01000000
00000100
00000000
,
00010000
00001000
00010000
00001000
00000000
00000000
00200020
00000000
,
00000000
00000000
00000000
00000000
,
00000000
00000000
00000000
00000000
,
00300030
00000000
00000000
00000000
;
