#TITLE:Miracle Moon ~L.E.D.LIGHT STYLE MIX~;
#SUBTITLE:;
#ARTIST:Togo Project feat. Sana;
#TITLETRANSLIT:;
#SUBTITLETRANSLIT:;
#ARTISTTRANSLIT:;
#GENRE:;
#CREDIT:;
#MUSIC:Miracle Moon ~L.E.D.LIGHT STYLE MIX~.mp3;
#BANNER:Miracle Moon ~L.E.D.LIGHT STYLE MIX~.png;
#BACKGROUND:Miracle Moon ~L.E.D.LIGHT STYLE MIX~-bg.png;
#CDTITLE:;
#SAMPLESTART:0.000;
#SAMPLELENGTH:0.000;
#SELECTABLE:YES;
#OFFSET:-0.297;
#BPMS:0.000=138.000;
#STOPS:40.000=1.304;
#DISPLAYBPM:138.000;
#BGCHANGES:;
#FGCHANGES:;

//--------------- dance-single - HellKiteChaos ----------------
#NOTES:
     dance-single:
     HellKiteChaos:
     Challenge:
     12:
     0,0,0,0,0:
0000
0000
0000
0000
,
0000
0000
0000
0000
,
0001
0000
0000
0000
1000
0000
0100
0000
0020
0000
0000
0031
0000
0000
1000
0000
,
0001
0000
0000
0000
0001
0000
0100
0000
0020
0000
0000
1030
0000
0000
0001
0000
,
0100
0000
0000
0000
0010
0000
0100
0000
0002
0000
0000
1003
0000
0000
0010
0000
,
0100
0000
0000
0000
0001
0000
1000
0000
0200
0000
0000
0310
0000
0000
0001
0000
,
1000
0000
0100
0000
1000
0000
0100
0000
1000
0000
0000
0001
0000
0000
0100
0000
,
0010
0000
1000
0000
0010
0000
1000
0000
0010
0000
0000
0100
0000
0000
0001
0000
,
1000
0000
0001
0000
1000
0000
0001
0000
1000
0000
0000
0100
0000
0000
0010
0000
,
0001
0000
0000
1000
0100
0000
0000
0010
0001
0000
0000
1000
0100
0000
0000
0010
,
0001
0000
2100
0100
0000
0100
0000
0100
,
0000
3100
0102
0100
0000
0100
0000
0100
,
0000
0103
0210
0010
0310
0000
0120
1000
,
1030
0000
1010
0000
0101
0000
1000
0010
,
0100
0001
1000
1100
0000
0101
0000
1100
,
0000
0101
0100
1100
0000
1010
0000
1100
,
0000
1010
0010
0110
0000
0101
0000
0110
,
0000
0001
2000
0000
0000
0200
3000
0000
,
0310
0000
0010
0000
0010
0000
0001
0000
1000
0000
0001
0100
0000
0000
0001
0000
,
0100
0000
0010
1000
0000
0000
0001
0000
0010
0000
0100
0010
0000
0000
0100
0000
,
0100
0010
0001
2100
0000
0010
0000
3001
,
0000
0102
0100
1000
0000
0010
0000
1003
,
0100
0000
0010
0000
0001
0000
1000
0000
0010
0000
0100
0010
0000
0000
1000
0000
,
0001
0000
0010
0100
0000
0000
0010
0000
0100
0000
1000
0001
0000
0000
0100
0000
,
0010
1000
0001
0001
0100
0100
0010
1000
,
0001
1000
0001
0100
1000
0001
0100
1000
,
0001
1000
0001
1000
0001
0000
0000
0000
0100
0000
0000
0000
0010
0000
0000
0000
,
1000
0000
0001
0010
1000
0001
0010
1000
,
0001
1000
0001
1000
0001
0000
0000
0000
1000
0000
0000
0000
0100
0000
0000
0000
,
0010
0001
1000
0001
0100
0001
1000
0001
,
0010
0001
1000
0001
0100
0001
1000
0001
,
0010
0001
0100
0010
0100
0010
1000
0001
,
1000
0001
1000
0100
0010
0001
1000
0100
,
0010
0001
1000
0010
1000
0100
1000
0010
,
1000
0100
0010
0001
0100
0001
0010
0001
,
0100
0000
0010
0000
1010
0000
0000
0000
0010
0000
0100
0000
0020
0000
0000
2030
,
0000
0000
3010
0000
0100
0000
0000
0000
0001
0000
0100
0000
0020
0000
0000
0230
,
0000
0000
0310
1000
0001
0000
0000
0000
0100
0000
0001
0000
2000
0000
0000
3200
,
0000
0000
1300
0000
0001
0000
0000
0000
0100
0000
0010
0100
0000
0000
0020
0000
,
0230
0000
0320
0000
1030
0000
0000
0000
0001
0000
0010
0000
0002
0000
0000
2003
,
0000
0000
3100
0000
0010
0000
0000
0000
0100
0000
0010
0000
0200
0000
0000
0320
,
0000
0000
0031
1000
0100
0000
0000
0000
0010
0000
0100
0000
0020
0000
0000
0032
,
0000
1003
0001
0001
1000
1000
0010
0100
,
0001
0000
1000
0000
0010
0000
0000
0000
0100
0000
0001
0000
2000
0000
0000
3200
,
0000
0000
0310
0000
0011
0000
0000
0000
0001
0000
1000
0000
0020
0000
0000
0230
,
0000
0000
0301
1000
0010
0000
0000
0000
1000
0000
0001
0000
0200
0000
0000
0302
,
0000
1003
1010
0010
1000
1000
0001
0100
,
0010
0000
1000
0000
0100
0000
0000
0000
0010
0000
0001
0000
1000
0000
0001
0100
,
0000
0100
0010
0000
1010
0000
0000
0000
1000
0000
0100
0000
0010
0000
0001
1000
,
0000
0001
1000
0001
1000
0000
0000
0000
0001
0000
0100
0000
0010
0000
1000
0001
,
0000
0001
0100
0000
0101
0000
0000
0000
0100
0000
0010
0000
0100
0000
0001
0000
,
1000
0000
0010
0000
0110
0000
0000
0000
0100
0000
0001
0000
2000
0000
0000
3002
,
0000
0000
0013
0000
0110
0000
0000
0000
0100
0000
1000
0000
0002
0000
0000
0203
,
0000
0000
0310
0000
0110
0000
0000
0000
0100
0000
0010
0000
1010
0000
0000
1001
,
0000
0202
0000
0000
0000
0000
0303
0000
;

//--------------- dance-double - HellKiteChaos ----------------
#NOTES:
     dance-double:
     HellKiteChaos:
     Challenge:
     12:
     0,0,0,0,0:
00000000
00000000
00000000
00000000
,
00000000
00000000
00000000
00000000
,
00011000
00000000
00000000
00000000
00001000
00000000
00100000
00000000
02000000
00000000
00000000
23000000
00000000
00000000
30010000
00000000
,
10000000
00000000
00000000
00000000
00100000
00000000
00010000
00000000
00002000
00000000
00000000
00003100
00000000
00000000
00001000
00000100
,
00000010
00000000
00000000
00000000
00001000
00000000
00000010
00000000
00000002
00000000
00000000
00002003
00000000
00000000
00003100
00000000
,
00000001
00000000
00000000
00000000
00001000
00000000
00000001
00000000
00000020
00000000
00000000
00000130
00000000
00000000
00000001
00000100
,
00001000
00000000
00000100
00000000
00001000
00000000
00000010
00000000
00000002
00000000
00000000
00000023
00000000
00000000
00001030
00000000
,
00000100
00000000
00000000
00000000
00000010
00000000
00001000
00000000
00020000
00000000
00000000
01030000
00000000
00000000
00010000
01000000
,
00100000
00000000
00000000
00000000
00010000
00000000
00100000
00000000
20000000
00000000
00000000
30020000
00000000
00000000
01030000
00000000
,
20000000
30200000
00320000
00032000
,
00003100
00000000
00000210
00000010
00000000
00000010
00000000
00000010
,
00000000
00000310
00001002
00001000
00000000
00001000
00000000
00001003
,
00000000
00001010
00000101
00000001
00000001
00000000
00001010
00001000
,
00001000
00000000
00001010
00000010
00010010
00010000
00011000
00001000
,
01001000
01000000
01200000
00000000
10000000
00000000
01000000
00000000
,
10300000
00010000
00210000
00000000
01000000
00000000
00010000
00000000
,
01300000
10000000
00010000
02010000
00000000
00010000
00000000
00100000
,
00000000
00000000
03100000
00000000
20000000
00000000
00000000
00000000
00000000
00000000
00100000
00000000
30000000
00000000
00000000
10000000
,
00100000
00010000
00001000
00000100
00000000
00000001
00000000
00000010
,
00000000
00001000
00010000
01000000
00000000
10000000
00000000
00100000
,
00000000
00010000
00001000
00000010
00000000
00000011
00000000
00001001
,
00000000
00000101
00000100
00000010
00001000
00000100
00000010
00000001
,
00001000
00000001
00000200
00000010
00000000
00001000
00000000
00000010
,
00000000
00000301
00000020
00000100
00000000
00000001
00000000
00000100
,
00000000
00000031
00000100
00001000
00010000
00100000
10000000
00010000
,
01000000
00100000
10000000
01000000
00010000
01000000
10000000
01000000
,
00100000
00010000
00100000
00010000
00100000
00000000
00000000
00000000
00110000
00000000
00000000
00000000
00101000
00000000
00000000
00000000
,
00010100
00000000
00001000
00000100
00000001
00000100
00001000
00000100
,
00000010
00000001
00000010
00000001
00000010
00000000
00000000
00000000
00000011
00000000
00000000
00000000
00000110
00000000
00000000
00000000
,
00001100
00000100
00010000
00000100
00000010
00000100
00010000
00000100
,
00000010
00000100
00010000
00001000
00100000
00001000
00010000
00001000
,
00100000
00001000
01000000
00010000
01000000
00100000
10000000
00100000
,
10000000
00000000
00010000
00100000
00010000
00100000
01000000
10000000
,
01000000
00000000
10000000
00100000
00010000
00000000
00001000
00000100
,
00000010
00000100
00000001
00001000
,
00000100
00000000
00000000
00000000
00000011
00000000
00000000
00000000
00000001
00000000
00001000
00000000
00000020
00000000
00000000
00020030
,
00000000
00000000
00031000
00000000
00100000
00000000
00000000
00000000
00010000
00000000
00100000
00000000
00002000
00000000
00000000
00013000
,
00000000
00000000
00000010
00001000
00000010
00000000
00000000
00000000
00000100
00000000
00001000
00000000
00020000
00000000
00000000
00230000
,
00000000
01300000
00010000
01000000
10000000
01000000
00100000
10000000
,
01000000
00000000
00100000
00000000
00010000
00000000
00000000
00000000
00100000
00000000
01000000
00000000
00020000
00000000
00000000
00032000
,
00000000
00000000
00003010
00000000
00000100
00000000
00000000
00000000
00000010
00000000
00000100
00000000
00002000
00000000
00000000
00003100
,
00000000
00000000
00010000
00000100
00010000
00000000
00000000
00000000
00001000
00000000
00100000
00000000
00101000
00000000
00000000
00110000
,
00000000
00000000
00010000
00100000
01000000
00000000
01000000
00000000
10000000
00000000
00100000
00000000
00010000
00000000
00100000
00000000
,
01000000
00000000
00001000
00000000
00011000
00000000
00000000
00000000
00001000
00000000
00010000
00000000
00000100
00000000
00000010
00000001
,
00000000
00000010
00000001
00000000
00001000
00000000
00000000
00000000
00000001
00000000
00000100
00000000
00000010
00000000
00010000
00000010
,
00000000
00010000
00001000
00010000
00001000
00000000
00000000
00000000
00010000
00000000
00001000
00000000
00100000
00000000
01000000
00100000
,
00000000
01000000
00100000
00000000
00010000
00000000
00010000
00000000
01000000
00000000
00100000
00000000
10000000
00000000
01000000
00000000
,
00010000
00000000
00001000
00000000
00010000
00000000
00001000
00000000
00000100
00000000
00001000
00000000
00010000
00000000
00001000
00010000
,
00000000
00001000
00010000
00000000
00001000
00000000
00010000
00000000
01000000
00000000
00010000
00000000
00001000
00000000
00010000
00001000
,
00000000
00010000
00001000
00010000
00000010
00000000
00000010
00000000
00000100
00000000
00000001
00000000
00000011
00000000
00000000
00000110
,
00000000
00001100
00000100
00000100
00010000
00010000
00001000
00001000
,
01000000
00000000
00100000
00000000
20000000
00000000
30000000
00000000
02000000
00000000
03000000
00000000
00100000
00000000
00000000
00100000
,
00000000
00000000
00100000
00000000
00020000
00000000
00030000
00000000
00000010
00000000
00000100
00000000
00002000
00000000
00003000
00000002
,
00000000
00000003
00000100
00000010
00001000
00000000
00000000
00000000
00000100
00000000
00000010
00000000
00000011
00000000
00000000
00001001
,
00000000
00002200
00000000
00000000
00000000
00000000
00003300
00000000
;
