#TITLE:MAXX UNLIMITED;
#SUBTITLE:;
#ARTIST:Z;
#TITLETRANSLIT:;
#SUBTITLETRANSLIT:;
#ARTISTTRANSLIT:;
#GENRE:;
#CREDIT:;
#MUSIC:MAXX UNLIMITED.mp3;
#BANNER:MAXX UNLIMITED.png;
#BACKGROUND:MAXX UNLIMITED-bg.png;
#CDTITLE:;
#SAMPLESTART:13.600;
#SAMPLELENGTH:12.000;
#SELECTABLE:YES;
#OFFSET:-0.845;
#BPMS:0.000=300.000
,69.000=301.000
,78.000=300.000
,160.000=280.000
,188.000=281.000
,192.000=300.000
,224.000=150.000
,238.000=151.000
,240.000=300.000
,272.000=140.000
,280.000=125.000
,281.000=48.000
,282.000=320.000
,360.000=324.000
,363.000=320.000
;
#STOPS:282.000=1.507;
#DISPLAYBPM:140.000:320.000;
#BGCHANGES:;
#FGCHANGES:;

//--------------- dance-single - HellKiteChaos ----------------
#NOTES:
     dance-single:
     HellKiteChaos:
     Challenge:
     18:
     0,0,0,0,0:
0000
0000
0000
0000
,
0000
0000
0000
0000
,
0000
0000
0000
0000
,
0000
0000
0000
0000
,
0000
0000
0000
0000
,
0000
0000
0000
0000
,
0000
0000
0000
0000
0000
0000
0000
0001
,
1000
0001
1000
0001
1000
0000
0000
0000
,
0001
0000
0100
0102
0000
0000
1003
0000
,
0100
1000
0001
1000
0010
0100
0001
1000
,
0001
0000
1000
1200
0000
0000
1300
0000
,
0001
0100
0001
1000
0001
0010
0100
1000
,
0001
0000
0100
0120
0000
0000
1030
0000
,
0001
0100
0010
1000
0001
0100
0010
0000
,
1000
0000
0000
1001
0000
0000
0001
0000
,
1000
0100
0010
0001
0100
0010
1000
0100
,
0010
0000
0002
0000
1000
2003
0000
3100
,
1000
0000
0002
0000
1000
2003
0000
3100
,
1000
0000
0002
0000
1000
2003
0000
3100
,
1000
0200
0000
0320
0000
0032
0000
1003
,
0001
0000
0200
0000
0001
0302
0000
1003
,
0001
0000
0200
0000
0001
0302
0000
1003
,
0001
0000
0200
0000
0001
0302
0000
1003
,
0001
0200
0000
0320
0000
2030
0000
3001
,
2000
0000
3002
0000
0103
0001
0100
0001
,
1000
0000
1200
0000
1300
0100
1000
0001
,
0100
0000
1020
0000
1030
0010
1000
0001
,
1001
0101
1001
1100
,
2000
0000
3002
0000
0013
0001
0010
0001
,
1000
0000
1020
0000
1030
0010
1000
0001
,
0010
0000
1200
0000
1300
0100
1000
0001
,
1001
0011
1001
1010
,
0010
0000
1010
0000
1000
0001
0100
0000
,
0001
0000
0101
0000
0001
1000
0100
0000
,
1000
0000
1100
0000
0100
0010
0001
0010
,
0011
1001
1100
0110
,
0001
0000
0011
0000
1000
0001
0100
0000
,
0010
0000
1010
0000
1000
0001
0010
0000
,
0100
0000
1001
0000
0001
0100
0010
0000
,
1000
0100
0010
0001
1000
0010
0100
0001
,
1000
0000
1000
0100
0000
0100
1000
0000
,
1000
0001
1000
0001
0100
0010
0100
0010
,
1000
0000
0001
0100
0000
0100
0010
0000
,
0010
1000
0001
1000
0001
0100
0010
1000
,
0001
0000
0001
0100
0000
0100
0010
0000
,
0010
1000
0001
1000
0001
0100
0010
1000
,
0100
0000
0100
0010
0000
0010
0001
0000
,
1000
0001
1000
0001
1000
0001
1000
0001
,
0010
0001
0100
0000
0010
1000
0100
0000
,
0010
0001
0100
0010
0100
0010
1000
0000
,
0010
1000
0100
0000
0010
0001
0100
0000
,
0010
1000
0100
0010
0100
0010
0001
0000
,
0010
0001
1000
0001
1000
0001
0100
0000
,
0010
1000
0001
1000
0001
1000
0100
0000
,
0010
0001
0010
0000
0010
0100
1000
0100
,
1000
0001
0100
0001
0100
0010
1000
0100
,
0010
0000
0001
0000
0001
0100
0000
0100
0010
0000
0010
2000
0000
0000
3001
0000
,
0000
0000
1000
0000
1000
0100
0000
0100
0010
0000
0010
0002
0000
0000
1003
0000
,
0001
0000
1000
0000
1000
0010
0000
0010
0100
0000
0100
0002
0000
0000
1003
0000
,
0000
0000
0001
0000
0001
0010
0000
0010
0100
0000
0100
2000
0000
0000
3001
0000
,
1000
0000
1100
0000
0010
0001
0100
0000
,
0001
0000
0101
0000
0010
1000
0100
0000
,
0010
0000
0011
0000
0001
1000
0100
0000
,
1000
0001
0010
0000
0000
0001
1000
0001
,
1000
0000
1001
0000
0010
1000
0100
0000
,
1000
0000
1100
0000
0010
0001
0100
0000
,
0101
1001
1100
1001
,
1000
0001
1000
0010
0100
0001
1000
0001
,
0000
0000
0101
0000
0000
1001
0000
0000
1100
0000
0000
1001
0000
0000
1010
0000
,
0000
0000
1010
0000
0000
1001
0000
0000
0011
0000
0000
1001
0000
0000
0110
0000
,
2002
0000
0000
0000
0000
0000
0000
0000
0000
0000
0000
0000
0000
0000
0000
0000
0000
0000
0000
0000
0000
0000
0000
0000
0000
0000
0000
0000
0000
0000
0000
0000
0000
0000
0000
0000
0000
0000
0000
0000
0000
0000
0000
0000
0000
0000
0000
0000
0000
0000
0000
0000
0000
0000
0000
0000
0000
0000
0000
0000
0000
0000
0000
0000
0000
0000
0000
0000
0000
0000
0000
0000
0000
0000
0000
0000
0000
0000
0000
0000
0000
0000
0000
0000
0000
0000
0000
0000
0000
0000
0000
0000
0000
0000
0000
0000
0000
3003
0000
0000
0000
0000
0000
0000
0000
0000
0000
0000
0000
0000
0000
0000
0000
0000
0000
0000
0000
0000
0000
0000
0000
0000
0000
0000
0000
0000
0000
0000
0000
0000
0000
0000
0000
0000
0000
0000
0000
0000
0000
0000
0000
0000
0000
0000
1000
0000
0000
0000
0000
0000
0000
0000
0000
0000
0000
0000
0000
0000
0000
0000
0000
0000
0000
0000
0000
0000
0000
0000
0001
0000
0000
0000
0000
0000
0000
0000
0000
0000
0000
0000
0000
0000
0000
0000
0000
0000
0000
0000
0000
0000
0000
0000
,
1000
0010
1000
0001
0100
0010
1000
0001
,
0010
0001
1000
0001
0100
0010
1000
0001
,
0100
0001
1000
0010
1000
0001
1000
0100
,
0010
0001
1000
0010
0100
0001
1000
0010
,
1000
0001
1000
0010
0100
0001
1000
0001
,
0010
0001
1000
0001
0010
0100
1000
0001
,
0100
0001
1000
0001
0100
0010
1000
0001
,
1000
0001
0000
1000
0001
0000
1000
0010
,
0100
0001
0100
0001
0010
0100
1000
0100
,
1000
0001
0100
0001
0100
0010
1000
0001
,
0010
0001
1000
0100
1000
0001
1000
0010
,
1000
0001
0100
0010
1000
0001
1000
0100
,
0010
0100
1000
0001
0010
0100
0010
0001
,
1000
0010
0100
0001
1000
0100
0010
0001
,
0010
0000
0100
1000
0100
0000
0010
0001
,
1000
0100
0010
0001
0100
0010
1000
0000
,
0000
2010
0000
0000
3001
0000
0102
0000
,
0000
1003
0000
0000
0010
1000
2010
0000
,
0000
3001
0000
0000
1000
0100
0010
0001
,
1001
0000
0000
2001
,
0000
3100
0000
0000
0100
1000
1002
0000
,
0000
0103
0000
0000
0100
0001
2001
0000
,
0000
3010
0000
0000
0010
0100
0010
1000
,
0100
0000
0010
0001
0100
0001
0010
0000
,
0100
1000
0000
0100
1000
0000
0010
0000
,
0100
0001
0000
0100
0001
0000
1000
0000
,
0010
0100
0000
0010
0100
0000
0010
0100
,
0001
1000
0001
1000
0100
0010
0001
0000
,
1000
0100
0000
1000
0100
0000
0010
0000
,
0001
0100
0000
0001
0100
0000
0101
0000
,
0000
1010
0000
0000
1100
0000
1100
0000
,
1001
0000
0000
1000
0001
1000
0001
0100
,
0010
0100
0001
0100
0010
0000
1000
0100
,
0010
0100
1000
0100
0010
0000
0001
0010
,
0100
0010
0001
0010
0100
0000
1000
0001
,
0100
0001
1000
0010
1000
0001
0100
0010
,
0100
0000
0010
0100
0010
0000
0100
0001
,
1000
0010
0100
0001
1000
0010
0100
0000
,
0000
0110
0000
0000
0100
0010
0100
0000
,
0000
1001
0000
0000
0001
1000
0010
0100
,
0001
0010
0100
1000
0010
0100
0001
1000
,
0100
0010
0001
0100
0010
1000
2002
0000
,
0000
0000
0000
0000
,
0000
3003
0000
0000
;

//--------------- dance-double - HellKiteChaos ----------------
#NOTES:
     dance-double:
     HellKiteChaos:
     Challenge:
     18:
     0,0,0,0,0:
00000000
00000000
00000000
00000000
,
00000000
00000000
00000000
00000000
,
00000000
00000000
00000000
00000000
,
00000000
00000000
00000000
00000000
,
00000000
00000000
00000000
00000000
,
00000000
00000000
00000000
00000000
,
00000000
00000000
00000000
00000000
00000000
00000000
00000000
00001000
,
00010000
00001000
00010000
00001000
00020000
00000000
00000000
00000000
,
00031000
00000000
00001000
00100000
00000000
00100000
00010000
00000000
,
10000000
00000000
01000000
00000000
10000000
00000000
00010000
01000000
,
00010000
00000000
00010000
10000000
00000000
10000000
00100000
00000000
,
01000000
00000000
00010000
00000000
01000000
00000000
00010000
10000000
,
00010000
00000000
00010000
00100000
00000000
00100000
00010000
00000000
,
01000000
00001000
00010000
00000100
,
00001000
00000000
00000000
00001100
00000000
00000000
00000011
00000000
,
00000001
00001000
00000001
00001000
00000100
00000010
00000001
00000000
,
00001001
00000000
00000001
00000000
00000100
00000010
00001000
00000000
,
00001001
00000000
00000001
00000000
00001000
00000100
00000010
00000000
,
00001001
00000000
00000001
00000000
00000100
00000010
00010000
00001000
,
00010000
00002000
00000000
00203000
00000000
02300000
00000000
03000000
,
10010000
00000000
00010000
00000000
10000000
01000000
00100000
00000000
,
10010000
00000000
10000000
00000000
00010000
01000000
00100000
00000000
,
10010000
00000000
10000000
00000000
01000000
00100000
00001000
00010000
,
00001000
00020000
00000000
00030200
00000000
00002300
00000000
00003000
,
00001100
00000000
00000100
00000000
00000010
00000001
00001000
00000001
,
00000100
00000000
00000101
00000000
00000010
00001000
00000001
00001000
,
00000100
00000000
00010100
00000000
00000100
00010000
00001000
00010000
,
00011000
00101000
00110000
01100000
,
11000000
00000000
10000000
00010000
10000000
00100000
01000000
00000000
,
01010000
00000000
00010000
10000000
00010000
00100000
01000000
00000000
,
11000000
00000000
10000000
00100000
01000000
00010000
00100000
01000000
,
11000000
10010000
01010000
01001000
,
00001000
00000000
01000000
00010000
01000000
00001000
01000000
00010000
,
00100000
00000000
00001000
00100000
00001000
00010000
00001000
00010000
,
00000010
00000000
00001000
00000010
00001000
00000001
00001000
00000010
,
00000110
00001001
00001010
00000101
,
00000001
00001000
00000001
00001000
00000010
00001000
00000100
00000000
,
00001000
00000100
00010000
00001000
00100000
00001000
00010000
00000000
,
00001000
01000000
00100000
00000000
10000000
01000000
00100000
00010000
,
01000000
00100000
10000000
01000000
00100000
00001000
00010000
00000100
,
00000010
00000000
00000010
00000001
00000000
00000001
00001000
00000000
,
00000001
00000100
00000010
00001000
00000010
00001000
00000100
00001000
,
00000010
00001000
00000100
00010000
00001000
00010000
00001000
00000000
,
00001000
01000000
00000000
01000000
00100000
10000000
01000000
00100000
,
00010000
10000000
01000000
10000000
01000000
00100000
00010000
01000000
,
00100000
01000000
00000000
00100000
01000000
00010000
10000000
01000000
,
10000000
01000000
00100000
00010000
00100000
00010000
01000000
00001000
,
00010000
00000100
00010000
00000100
00010000
00001000
00100000
00001000
,
00010000
00001000
00100000
00000000
00001000
00010000
00000010
00000000
,
00010000
00001000
00100000
00000000
00001000
00010000
00000010
00000000
,
00010000
00001000
00100000
00000000
00001000
00010000
00000010
00000000
,
00010000
00001000
00100000
00000000
00001000
00010000
00000010
00000000
,
00000100
00000001
00000010
00000000
00000100
00001000
00000010
00000000
,
00000100
00000001
00000010
00000000
00000100
00001000
00000010
00000000
,
00000100
00000000
00000010
00000000
00000000
00000100
00000010
00000100
,
00000001
00001000
00000100
00000010
00000001
00000100
00001000
00010000
,
00100000
00000000
20000000
00000000
00000000
30200000
00000000
00000000
20300000
00000000
00000000
32000000
00000000
00000000
03200000
00000000
,
00000000
00300000
00020000
00000000
00000000
00230000
00000000
00000000
00302000
00000000
00000000
00023000
00000000
00000000
00030100
00000000
,
01000000
00000000
00020000
00000000
00000000
00230000
00000000
00000000
02300000
00000000
00000000
03020000
00000000
00000000
00032000
00000000
,
00000000
00003000
00000020
00000000
00000000
00000032
00000000
00000000
00000203
00000000
00000000
00000320
00000000
00000000
00001030
00000000
,
00000100
00000000
00000010
00000000
00000100
00001000
00000010
00000000
,
00000100
00000000
00000001
00000000
00000010
00000001
00000100
00000000
,
00000010
00000000
00001000
00000000
00000100
00010000
00000010
00000000
,
00000100
00000010
00000100
00000000
00000010
00000000
00000110
00000000
,
00001010
00000000
00001000
00000000
00000010
00010000
00001000
00000000
,
00010000
00000000
00011000
00000000
00001000
00100000
01000000
00000000
,
10000000
01000000
00010000
00000000
00010000
01000000
10000000
00000000
,
00100000
01000000
00001000
00010000
00000100
00000010
00000001
00000100
,
00001000
00000000
00020000
00000000
00000000
00230000
00000000
00000000
20300000
00000000
00000000
32000000
00000000
00000000
03020000
00000000
,
00000000
00030000
00002000
00000000
00000000
00003020
00000000
00000000
00000032
00000000
00000000
00000203
00000000
00000000
00000310
00000000
,
00002002
00000000
00000000
00000000
00003003
00000000
00000001
00000100
,
00000001
00000100
00000010
00001000
00000100
00001000
00000100
00010000
,
00001000
00010000
00000100
00010000
00001000
00100000
00010000
01000000
,
00100000
10000000
00100000
10000000
00010000
01000000
00010000
10000000
,
00010000
01000000
00100000
10000000
00010000
00100000
01000000
10000000
,
00100000
01000000
00010000
01000000
00001000
01000000
00001000
00010000
,
00001000
00100000
00001000
00010000
00000100
00010000
00000010
00001000
,
00000001
00000100
00000001
00000010
00000001
00000010
00000100
00001000
,
00000001
00001000
00000000
00000001
00001000
00000000
00000001
00000100
,
00000010
00001000
00000100
00010000
00000100
00001000
00000100
00000010
,
00000100
00010000
00001000
00010000
00000100
00010000
00001000
00100000
,
00010000
00100000
00001000
00100000
01000000
00100000
00010000
01000000
,
00100000
10000000
01000000
00100000
00010000
00000000
10000000
01000000
,
00100000
01000000
10000000
01000000
10000000
00000000
00010000
01000000
,
00100000
01000000
00010000
01000000
00010000
00000000
10000000
00100000
,
10100000
00000000
00010000
01000000
01010000
00000000
01000000
00100000
,
10000000
01000000
00010000
00001000
00000010
00000001
00000011
00000000
,
00000000
00000101
00000000
00000000
00000010
00000100
00000101
00000000
,
00000000
00001010
00000000
00000000
00000100
00000010
00001010
00000000
,
00000000
00001001
00000000
00000000
00000001
00000010
00000100
00001000
,
00000002
00000000
00000003
00001001
,
00000000
00000101
00000000
00000010
00001000
00000010
00001010
00000000
,
00000000
00001100
00000000
00000100
00010000
00000100
00010100
00000000
,
00000000
00011000
00000000
00000000
00001000
00010000
00001000
00010000
,
00001000
00000000
00010000
00001000
00010000
00001000
00100000
00000000
,
00000000
00110000
00000000
00000000
00010000
10000000
01000000
00000000
,
00000000
11000000
00000000
00000000
10000000
01000000
11000000
00000000
,
00000000
00110000
00000000
00000000
11000000
00000000
01000000
00000000
,
00010000
00000100
00000010
00000011
,
00000000
00000101
00000000
00000000
00000001
00000100
00000101
00000000
,
00000000
00001010
00000000
00000000
00000010
00001000
00000001
00000000
,
00001000
00000001
00000000
00001000
00000001
00000000
00000110
00000000
,
00001001
00000000
00000000
00000001
00001000
00000001
00001000
00000100
,
00000010
00000000
00000001
00000100
00001000
00000000
00000100
00000001
,
00000010
00000100
00010000
00001000
00010000
00000000
00001000
01000000
,
00100000
00000000
00010000
00100000
10000000
00000000
00100000
10000000
,
00100000
10000000
00010000
10000000
01000000
00100000
00010000
01000000
,
00001000
00000000
00010000
00000100
00001000
00000000
00000100
00000010
,
00000001
00000100
00000010
00001000
00000010
00001000
00000002
00000000
,
00000000
00000103
00000000
00000000
00000010
00000100
00000020
00000000
,
00000000
00001030
00000000
00000000
00000010
00001000
00000001
00000100
,
00001000
00010000
00100000
10000000
00010000
10000000
01000000
00100000
,
00010000
01000000
00100000
10000000
01000000
00020000
00002000
00000000
,
00000000
00000000
00000000
00000000
,
00000000
00033000
00000000
00000000
;
