#TITLE:LOVE ♡ SHINE;
#SUBTITLE:;
#ARTIST:小坂りゆ;
#TITLETRANSLIT:LOVE LOVE SHINE;
#SUBTITLETRANSLIT:;
#ARTISTTRANSLIT:KOSAKA RIYU;
#GENRE:;
#CREDIT:;
#MUSIC:LOVE LOVE SHINE.mp3;
#BANNER:LOVE LOVE SHINE.png;
#BACKGROUND:LOVE LOVE SHINE-bg.png;
#CDTITLE:;
#SAMPLESTART:43.560;
#SAMPLELENGTH:12.000;
#SELECTABLE:YES;
#OFFSET:-0.269;
#BPMS:0.000=177.000;
#STOPS:;
#DISPLAYBPM:177.000;
#BGCHANGES:;
#FGCHANGES:;

//--------------- dance-single - HellKiteChaos ----------------
#NOTES:
     dance-single:
     HellKiteChaos:
     Challenge:
     13:
     0,0,0,0,0:
0000
0000
0000
0000
,
0000
0000
0000
0000
,
0100
1001
0100
1001
,
0000
0100
0100
0100
0010
0100
0001
1000
,
0020
0000
0230
0000
0301
1000
0001
2000
,
0000
3001
0010
0002
0003
1000
0100
0010
,
0001
1000
0200
0000
0310
0001
2000
0100
,
3000
0100
0010
0100
2002
0000
3003
0000
,
0001
0200
0300
0020
0030
0200
0300
0010
,
1000
0001
0010
0100
1000
0010
0100
0001
,
1000
0200
0300
0020
0030
0200
0300
0010
,
0001
1000
0001
1000
0100
0010
0001
0100
,
0010
0110
0100
1001
,
1000
0100
0010
0000
0001
1000
0100
0000
,
0010
0001
1000
0001
0010
0100
1000
0000
,
0010
1000
0010
1000
0010
0100
0001
1000
,
0010
0200
0300
0020
0030
0200
0300
0010
,
0100
0001
1000
0001
1000
0001
0010
0100
,
1000
0002
0003
2000
3000
0002
0003
0100
,
0010
0100
0010
1000
0001
0100
0010
1000
,
0100
0110
0010
1001
,
0001
0100
0010
0000
1000
0001
0100
0010
,
0100
0010
0000
0100
0010
0100
0100
0001
,
0000
1000
0001
1000
2001
0000
3002
0000
,
1003
0010
1000
0010
0100
0001
0100
0001
,
0010
0001
0010
0001
0010
0100
0010
0100
,
1000
0001
0010
0100
1000
0001
0010
0100
,
1000
0010
0100
0001
1000
0001
1001
0000
,
1000
0100
1000
0100
0010
0001
0010
0001
,
1000
0010
1000
0010
0100
0010
0100
0010
,
0110
0100
1001
1000
,
0010
0100
0010
0100
0001
0010
0100
1000
,
0001
1000
0001
0200
0000
0310
1000
0001
,
0100
0110
1000
1001
,
0001
0010
0001
2000
0000
3100
1000
0100
,
0010
0001
1000
0100
1000
0001
0010
0100
,
1000
0001
1000
0002
0000
0103
0001
2000
,
0000
3100
1000
0001
0100
0000
0110
0000
,
1000
0001
0100
0010
1000
0010
1000
0001
,
0000
1001
1001
1001
1001
0000
1002
0000
,
0000
0203
0000
1300
0100
0001
0010
2000
,
0000
3002
0000
0103
1000
0010
0001
2000
,
0000
3002
0000
0013
1000
0001
0010
0100
,
0110
1001
0110
1001
,
1000
0100
0001
0100
1000
0100
0010
0100
,
1000
0010
0100
0001
1000
0000
0101
0000
,
0001
0010
0100
0100
,
0010
0001
0000
0100
0001
0000
1001
0000
,
1000
2000
3000
0010
0010
1000
0001
0010
,
0100
0000
0000
0100
0000
0000
0100
0000
1000
0000
0001
0000
1000
0000
0010
0000
,
0100
0110
0100
1001
,
0001
0000
1000
0000
0001
0000
1000
0000
0000
0110
0000
0000
,
0001
0010
0001
0001
1000
0010
1000
1000
,
0001
0100
0010
1000
0001
0100
0010
0000
,
0100
1001
0010
1001
,
1000
0100
1000
0001
0010
0001
0010
0001
,
1000
0001
1000
1000
0010
0100
0001
0001
,
1000
0100
0010
0010
0100
1000
0100
0100
,
0110
0001
0110
1000
,
0001
0100
0010
1000
0001
0100
0010
1000
,
0001
0001
0100
0001
0010
0000
0110
0000
,
1000
1000
0100
1000
0010
0000
0110
0000
,
0001
1000
0001
0000
1000
0001
1000
0100
,
0000
0010
0100
1000
0001
0010
0100
1000
,
0002
0000
1003
0001
0100
0002
0000
1003
,
0010
0200
0000
0301
0100
0001
1000
0000
,
0010
0100
1001
0000
0010
0100
1001
0000
,
0100
0010
0100
0010
0100
0010
1001
0000
,
0110
0000
1001
0000
0001
0100
0010
0000
,
1000
0100
0010
0001
0000
1000
2002
0000
,
3003
0000
0000
0000
;

//--------------- dance-double - HellKiteChaos ----------------
#NOTES:
     dance-double:
     HellKiteChaos:
     Challenge:
     13:
     0,0,0,0,0:
00000000
00000000
00000000
00000000
,
00000000
00000000
00000000
00000000
,
00011000
00011000
00011000
00011000
,
00001000
00100000
00100000
00100000
00100000
00000000
00010000
20000000
,
01000000
00000000
00010000
00000000
31000000
00100000
00010000
00020000
,
00000000
10030000
00100000
01000000
00010000
00000000
10010000
00000000
,
00010000
01000000
01000000
00000000
00100000
01000000
00010000
00100000
,
00000000
01000000
00100000
01000000
02200000
00000000
03300000
00000000
,
00100000
02000000
03000000
00200000
00300000
02000000
03000000
00200000
,
00300000
01000000
00100000
00001000
00010000
00000100
00001000
00001000
,
00000100
00000020
00000030
00000200
00000300
00000020
00000030
00000200
,
00000300
00000010
00000001
00000000
00001100
00000000
00000011
00000000
,
00001000
00000100
00000000
00000010
00000000
00000001
00000000
00000100
,
00000000
00001000
00000000
00010000
00000000
00100000
00000000
10000000
,
00010000
10000000
01000000
00000000
00100000
00010000
01000000
00000000
,
00100000
10000000
00100000
00010000
00001000
00000100
00000001
00000100
,
00000010
00002000
00003000
00000002
00000003
00002000
00003000
00000002
,
00000003
00001000
00000010
00000100
00001000
00010000
00000100
00000010
,
00000001
00002000
00003000
00000002
00000003
00002000
00003000
00000002
,
00001003
00000110
00001001
00011000
,
10010000
01100000
00100000
10010000
,
00010000
01000000
00100000
00100000
10000000
00010000
00100000
01000000
,
10000000
00010000
01000000
00100000
00000000
01000000
00100000
01000000
,
00000000
00100000
01000000
01000000
01100000
00000000
10010000
00000000
,
10000000
01000000
10000000
01000000
00010000
01000000
00010000
00001000
,
00000010
00001000
00000010
00000001
00001000
00000001
00001000
00000010
,
00000100
00000100
00000001
00000001
00001000
00001000
00000100
00000100
,
00000010
00000001
00000100
00000010
00010000
00001000
01000000
00100000
,
10000000
00010000
10000000
00010000
00100000
01000000
00100000
01000000
,
10000000
00100000
10000000
00100000
01000000
00001000
01000000
00001000
,
00010000
00001000
00000000
00000100
00000000
00000010
00000000
00001000
,
00000000
00000010
00000100
00000001
00000010
00000100
00001000
00000001
,
00001000
00000100
00001000
00000010
00000000
00000100
00000100
00000010
,
00000100
00000001
00000010
00000100
00001100
00000000
00010100
00000000
,
00010000
00000100
00010000
00001000
00000000
00100000
00010000
00010000
,
10000000
00100000
01000000
00010000
00100000
01000000
10000000
00100000
,
01000000
00010000
01000000
00100000
00000000
10000000
00100000
00010000
,
00000000
00100000
01000000
00010000
00100000
00000000
01000000
00000000
,
11000000
00000000
00000000
00000000
00110000
00000000
01010000
01010000
,
00000000
10100000
10100000
10100000
10100000
00000000
00000000
00000000
,
00000000
20000000
00000000
30100000
00010000
10000000
01000000
00020000
,
00000000
00230000
00000000
10300000
00100000
00010000
10000000
02000000
,
00000000
03200000
00000000
00310000
10000000
00010000
10000000
00010000
,
01100000
10010000
00011000
00001001
,
00000001
00000100
00000010
00000010
00001000
00000100
00000010
00000010
,
00000001
00000001
00001000
00001000
00000100
00000000
00000011
00000000
,
00000001
00000100
00000010
00001000
00000100
00001000
00000010
00000100
,
00000010
00010000
00001000
01000000
00100000
00000000
00000000
00000000
,
10000000
10000000
00000000
00100000
00100000
01000000
00010000
00100000
,
01000000
00000000
00000000
01000000
00000000
00000000
10000000
00000000
00010000
00000000
00000000
00000000
10010000
00000000
00000000
00000000
,
00020000
02030000
03002000
00023000
,
00030100
00000000
00000000
00000000
00000000
00000000
00000000
00000000
00000100
00000000
00000000
00000000
00000000
00000000
00000000
00000000
00000100
00000000
00000000
00000000
00000000
00000000
00000000
00000000
00000100
00000000
00000000
00000000
00000000
00000000
00000010
00000000
00000000
00000100
00000000
00000000
00000010
00000000
00000000
00000000
00000000
00000000
00000000
00000000
00000000
00000000
00000000
00000000
,
00000010
00000100
00000010
00000001
00000100
00000010
00000100
00000001
,
00000010
00000100
00001000
00000010
00000100
00000010
00001000
00000100
,
00001100
00000000
00010100
00000000
00010000
00001000
00010000
00001000
,
00100000
00100000
00010000
00010000
10000000
10000000
00100000
00100000
,
01000000
00100000
01000000
00100000
10000000
00010000
10000000
01000000
,
00010000
00001000
00000010
00000001
00000100
00000010
00001000
00000100
,
00001100
00000011
00001100
00000101
,
00000010
00001000
00000100
00001000
00000010
00001000
00000100
00001000
,
00000010
00010000
00000010
00010000
00000100
00001000
00000100
00010000
,
00001000
00100000
00001000
00100000
00010000
01000000
00100000
10000000
,
01000000
01000000
11000000
00000000
00100000
00010000
10000000
00010000
,
01000000
00100000
10000000
01000000
00010000
01000000
10000000
00100000
,
01000000
01000000
00000000
00010000
00010000
00010000
00000000
00100000
,
00100000
00100000
00000000
00001000
00001000
00001000
00010000
00001000
,
00011000
00010010
00011000
00101000
,
00001000
00010000
00001000
00010000
00001000
00000000
00011000
00000000
,
00000100
00000000
01000000
00000000
00001000
00010000
00001000
00000000
,
00100000
00000010
00010000
00001000
00000000
00011000
00022000
00000000
,
00033000
00000000
00000000
00000000
;
