#TITLE:LOOK AT US (Daddy DJ Remix);
#SUBTITLE:;
#ARTIST:SARINA PARIS;
#TITLETRANSLIT:;
#SUBTITLETRANSLIT:;
#ARTISTTRANSLIT:;
#GENRE:;
#CREDIT:;
#MUSIC:LOOK AT US (Daddy DJ Remix).mp3;
#BANNER:LOOK AT US (Daddy DJ Remix).png;
#BACKGROUND:LOOK AT US (Daddy DJ Remix)-bg.png;
#CDTITLE:;
#SAMPLESTART:0.000;
#SAMPLELENGTH:0.000;
#SELECTABLE:YES;
#OFFSET:-0.039;
#BPMS:0.000=134.704;
#STOPS:;
#DISPLAYBPM:135.000;
#BGCHANGES:;
#FGCHANGES:;

//--------------- dance-single - HellKiteChaos ----------------
#NOTES:
     dance-single:
     HellKiteChaos:
     Challenge:
     12:
     0,0,0,0,0:
0000
0000
0000
0000
,
0000
0000
0000
0000
,
0000
0000
0000
0002
0003
0010
0002
0003
,
0100
0020
0030
2000
3000
0100
0020
0030
,
0002
0000
0003
1000
0010
0100
0001
1000
,
0020
0000
0030
0100
0100
0001
1000
0100
,
0200
0000
0300
0020
0030
0001
0200
0300
,
0010
2000
3000
0002
0003
0010
0200
0300
,
1000
0001
1000
0001
0100
0010
1000
0100
,
0010
0001
0000
1000
0001
0010
0001
1000
,
0100
0010
0001
2001
0000
3010
0100
0001
,
1000
1002
0000
0013
0100
0010
0001
1000
,
1002
0000
0203
0010
0310
1000
0001
0100
,
0010
1000
0000
0010
0100
0001
1000
0010
,
0100
0001
1000
1002
0000
0013
0100
0010
,
0001
1000
0010
0210
0000
0301
1000
0010
,
0200
0000
0001
0301
,
0001
0000
1000
0000
0001
0100
0000
0000
0010
0000
1000
0001
0000
1000
0001
0000
,
1000
0000
0001
0000
0010
0100
0000
0000
1000
0000
0010
0100
0000
0010
0100
0000
,
0010
0000
1000
0000
0001
0010
0000
0000
0001
0000
0010
0100
0000
0010
0100
0000
,
1000
0000
1000
0000
0001
0010
0000
0000
0100
0000
1000
0001
0000
0001
1000
0000
,
0010
0000
0100
0000
0001
1000
0000
0000
0010
0000
0100
0001
0000
0100
0001
0000
,
0010
0000
0100
0000
1000
0001
0000
0000
0100
0000
0010
1000
0000
0010
1000
0000
,
0001
0000
1000
0000
0001
0100
0000
0000
0010
0000
0100
0010
0000
0010
0100
0000
,
0001
1000
0100
0010
0001
1000
0010
0100
,
0002
0000
0100
0000
0000
0000
0103
0000
0010
0000
0000
1000
0000
0000
0001
0000
,
0020
0000
0001
0000
0000
0000
0031
0000
1000
0000
0000
0001
0000
0000
0010
0000
,
0200
0000
0010
0000
0000
0000
0310
0000
0100
0000
0000
1000
0000
0000
0001
0000
,
2000
0000
0010
0000
0000
0000
3010
0000
1000
0000
0000
0001
0000
0000
0100
0000
,
0020
0000
1000
0000
0000
0000
1030
0000
0001
0000
0000
0100
0000
0000
1000
0000
,
0200
0000
0010
0000
0000
0000
0310
0000
1000
0000
0000
0001
0000
0000
0010
0000
,
2000
0000
0010
0000
0000
0000
3010
0000
0001
0000
0000
1000
0000
0000
0001
0000
,
0100
0000
0001
0000
0100
0000
0001
0000
1000
0000
0100
0000
1000
0001
1000
0001
,
1000
0200
0000
0310
0001
1000
0001
0100
,
0010
2000
0000
3010
0100
0010
1000
0001
,
0100
0020
0000
0130
0001
1000
0010
0100
,
0101
0000
1100
0100
0100
0100
0010
0001
,
1000
0000
0001
0000
0000
1000
0100
0000
0010
0000
0100
0000
0010
0000
0001
0000
,
1000
0000
0001
0000
0000
1000
0001
0000
0100
0000
0001
0000
1000
0000
0010
0000
,
0100
0000
0001
0000
0000
0100
0010
0000
1000
0000
0001
0000
0010
0000
0100
0000
,
1100
0000
0101
0001
0001
1000
0001
0001
,
1000
0000
0010
0000
1000
0000
0001
1000
0002
0000
0000
2003
0000
0000
3100
0000
,
0010
0000
0001
0000
1000
0000
0001
0010
0002
0000
0000
2003
0000
0000
3010
0000
,
0100
0000
0001
0000
0100
0000
0010
1000
0020
0000
0000
0230
0000
0000
0301
0000
,
1000
0100
1000
0001
1000
0100
0010
0001
,
1000
0000
0001
0000
0010
0000
0100
0010
0200
0000
0000
2300
0000
0000
3001
0000
,
1000
0000
0001
0000
0100
0000
0010
1000
0020
0000
0000
2030
0000
0000
3001
0000
,
0100
0000
0001
0000
1000
0000
0010
0100
0020
0000
0000
0230
0000
0000
0301
0000
,
1000
0001
0100
0010
1000
0001
1000
0001
,
2002
0000
0000
3003
;

//--------------- dance-double - HellKiteChaos ----------------
#NOTES:
     dance-double:
     HellKiteChaos:
     Challenge:
     11:
     0,0,0,0,0:
00000000
00000000
00000000
00000000
,
00000000
00000000
00000000
00000000
,
00000000
00000000
00000000
00001000
00000000
00010000
00002000
00000000
,
00103000
00020000
00000000
02030000
00000000
03100000
10000000
00000000
,
02020000
00000000
03030000
01000000
00100000
01000000
00100000
01000000
,
00020000
00000000
00030000
10000000
01000000
00100000
01000000
10000000
,
00020000
00000000
00030000
02000000
00000000
03100000
02000000
00000000
,
03001000
00020000
00000000
00030020
00000000
00000130
00000001
00000000
,
00002001
00000000
00003000
00000001
00001000
00000001
00001000
00000001
,
00000100
00000100
00000000
00000010
00000100
00000001
00000010
00000100
,
00001000
00001000
00000000
00000100
00010000
00000010
00010000
00001000
,
00010000
00010000
00000000
00000100
00010000
00001000
00100000
00001000
,
00012000
00000000
00013000
00001000
00010000
00001000
01000000
00100000
,
00010000
00000000
00001000
00000000
00010000
01000000
10000000
01000000
,
00010000
00000000
00001000
00000010
00000000
00000010
00000001
00000000
,
00000001
00000100
00000000
00000100
00000010
00001000
00000100
00000010
,
00000011
00000110
00001100
00010100
,
00000100
00000000
00010000
00000000
00001000
00010000
00000000
00000000
00001000
00000000
00000000
00100000
00000000
00000000
00010000
00000000
,
10000000
00000000
00100000
00000000
10000000
00100000
00000000
00000000
01000000
00000000
00000000
00100000
00000000
00000000
01000000
00000000
,
00010000
00000000
01000000
00000000
00010000
01000000
00000000
00000000
00010000
00000000
00000000
10000000
00000000
00000000
01000000
00000000
,
00100000
00000000
01000000
00000000
00100000
00010000
00000000
00000000
10000000
00000000
00000000
00100000
00000000
00000000
10000000
00000000
,
00010000
00000000
01000000
00000000
00100000
01000000
00000000
00000000
00100000
00000000
00000000
01000000
00000000
00000000
00010000
00000000
,
00100000
00000000
00010000
00000000
00100000
00001000
00000000
00000000
00010000
00000000
00000000
00000100
00000000
00000000
00010000
00000000
,
00001000
00000000
00000010
00000000
00000001
00001000
00000000
00000000
00000001
00000000
00000000
00000100
00000000
00000000
00000010
00000000
,
00001000
00000000
00001000
00000000
00000010
00000000
00000010
00000000
00000100
00000000
00000000
00001000
00000000
00000000
00010000
00000000
,
01000000
00000000
00000000
10000000
01000000
00100000
01000000
10000000
,
00010000
00000000
01000000
00100000
10000000
00010000
01000000
00100000
,
10000000
00000000
00100000
01000000
00001000
00010000
00000100
00010000
,
00001000
00000000
00011000
00000000
00010000
00000010
00000100
00000001
,
00001000
00000000
00000000
00000000
00000010
00000000
00001000
00000000
00000010
00000000
00000000
00000100
00000000
00000000
00000010
00000000
,
00000100
00000000
00000001
00000000
00000010
00000000
00000100
00000000
00001000
00000000
00000000
00000100
00000000
00000000
00001000
00000000
,
00000100
00000000
00010000
00000000
00000010
00000000
00001000
00000000
00000100
00000000
00000000
00010000
00000000
00000000
00001000
00000000
,
01000000
00000000
00010000
00000000
01000000
00000000
00100000
00000000
10000000
00000000
00100000
00000000
10000000
00010000
10000000
00010000
,
10000000
00000000
00010000
01000000
00010000
00100000
01000000
10000000
,
00010000
00000000
01000000
00100000
00000000
10000000
01000000
00000000
,
00100000
00010000
00001000
00000100
00000000
00000010
00000100
00000010
,
00000001
00000000
00001001
00000000
00000001
00000100
00000010
00001000
,
00000100
00000000
00001100
00000100
00010000
00001000
00010000
00001000
,
01000000
00000000
01001000
01000000
00010000
01000000
00100000
10000000
,
00100000
00000000
10100000
10000000
00010000
01000000
00001000
00010000
,
02000000
23000000
30200000
00320000
,
00130000
00000000
10000000
00000000
00100000
00000000
10000000
00100000
20000000
00000000
00000000
30020000
00000000
00000000
01030000
00000000
,
00100000
00000000
01000000
00000000
00010000
00000000
01000000
00001000
02000000
00000000
00000000
03020000
00000000
00000000
00130000
00000000
,
00010000
00000000
00100000
00000000
00001000
00000000
00010000
00001000
00020000
00000000
00000000
00030020
00000000
00000000
00001030
00000000
,
00000010
00000000
00001000
00000000
00000001
00000000
00000100
00000010
00002000
00000000
00000000
00003002
00000000
00000000
00000103
00000000
,
00000010
00000000
00000100
00000000
00000001
00000000
00001000
00000001
00002000
00000000
00000000
00003200
00000000
00000000
00010300
00000000
,
00001000
00000000
00010000
00000000
00001000
00000000
00100000
00010000
00200000
00000000
00000000
02300000
00000000
00000000
03100000
00000000
,
01000000
00000000
00100000
00000000
01000000
00000000
10000000
01000000
00200000
00000000
00000000
02300000
00000000
00000000
13000000
00000000
,
01000000
00010000
00001000
00000010
00000001
00001000
00000001
00000100
,
00000220
00000000
00000000
00000330
;
