#TITLE:L'amour et la liberte (DDR ver.);
#SUBTITLE:;
#ARTIST:NAOKI underground;
#TITLETRANSLIT:;
#SUBTITLETRANSLIT:;
#ARTISTTRANSLIT:;
#GENRE:;
#CREDIT:;
#MUSIC:L'amour et la liberte (DDR ver.).mp3;
#BANNER:L'amour et la liberte (DDR ver.).png;
#BACKGROUND:L'amour et la liberte (DDR ver.)-bg.png;
#CDTITLE:;
#SAMPLESTART:0.000;
#SAMPLELENGTH:0.000;
#SELECTABLE:YES;
#OFFSET:-0.271;
#BPMS:0.000=140.000
,32.000=145.000
;
#STOPS:;
#DISPLAYBPM:145.000;
#BGCHANGES:;
#FGCHANGES:;

//--------------- dance-single - HellKiteChaos ----------------
#NOTES:
     dance-single:
     HellKiteChaos:
     Challenge:
     14:
     0,0,0,0,0:
0000
0000
0000
0000
,
0000
0000
0000
0000
0000
0000
0000
1000
,
0001
0000
0100
0000
,
0000
0000
0000
0000
0000
0000
0000
0010
,
1000
0000
0001
0000
,
0000
0000
0000
0000
0000
0000
0000
1000
,
0010
0000
0000
0000
0100
0000
0000
0100
,
0001
0000
1000
0000
0001
0000
1000
0001
,
0100
0010
0100
0001
1000
0010
0100
0000
,
0001
0000
0100
0000
0001
0000
1000
0000
0010
0000
0000
1000
0000
0000
0001
0000
,
0100
0010
0100
0010
1000
0001
1000
0000
,
0100
0000
0010
0000
0100
0000
1000
0000
0001
0000
0000
0100
0000
0000
0010
0000
,
0100
0010
1000
0001
0100
0010
1000
0000
,
0001
0000
0010
0000
0100
0000
1000
0000
0001
0000
0000
1000
0000
0000
0001
0000
,
0100
0001
0100
0010
1000
0010
1000
0001
,
0200
0000
0000
0000
0310
0000
0000
0000
0010
0100
0010
0100
0010
1000
0001
0100
,
0010
0000
1000
0000
0001
0100
0000
0100
0010
0000
0010
1000
0000
1000
0000
0001
,
0000
0000
1000
0000
0100
0010
0000
0010
0001
0000
0001
1000
0000
1000
0000
0100
,
0000
0000
0010
0000
0001
1000
0000
1000
0010
0000
0010
0100
0000
0100
0000
0001
,
0000
0000
1000
0000
0001
0010
0000
0010
0100
0000
0100
1000
0000
1000
0000
0001
,
0000
0000
0100
0000
0010
0100
0000
0100
0001
0000
0001
1000
0000
1000
0000
0010
,
0000
0000
1000
0000
0001
0010
0000
0010
0100
0000
0100
0010
0000
0010
0000
0100
,
0000
0000
1000
0000
0100
0010
0000
0010
0001
0000
0001
1000
0000
1000
0000
0010
,
0000
0000
1000
0000
0010
1000
0000
1000
0001
0000
0001
0100
0000
0100
0000
0010
,
1000
0000
0001
0000
1000
0010
0000
0010
0100
0000
0100
0001
0000
0001
0000
0001
,
1000
0000
0001
0000
1000
0100
0000
0100
0010
0000
0010
0001
0000
0001
0000
0001
,
0100
0000
0010
0000
1000
0010
0000
0010
1000
0000
1000
0001
0000
0001
0000
0001
,
0010
0000
0100
0000
1000
0001
0000
0001
1000
0000
1000
0100
0000
0100
0000
0010
,
0001
0000
1000
0000
0001
0010
0000
0010
0100
0000
0100
1000
0000
1000
0000
0001
,
0100
0000
0010
0000
0100
0010
0000
0010
1000
0000
1000
0001
0000
0001
0000
0010
,
0100
0000
1000
0000
0001
0100
0000
0100
0010
0000
0010
1000
0000
1000
0000
0001
,
1000
0000
0001
0000
0100
0010
0000
0010
1000
0010
1000
0010
0100
0001
0100
0001
,
2000
0100
0000
0100
,
0001
0000
0000
0000
0100
0000
0000
0000
0000
0000
0000
0100
0000
0000
0100
0000
,
3002
0100
0000
0100
,
1000
0000
0000
0000
0100
0000
0000
0000
1003
0000
0000
0001
1000
0000
0001
0000
,
0100
0000
0001
1000
0010
0000
0100
0000
0010
0000
1000
0001
0000
1000
0001
0000
,
1000
0000
0100
0010
0001
0000
1000
0000
0001
0000
0100
0010
0000
0100
0010
0000
,
1000
0000
0001
0100
0010
0000
1000
0000
0010
0000
0100
0001
0000
0100
0001
0000
,
1000
0001
1000
0000
0100
0000
0000
0010
0001
0010
0000
0001
1000
0001
1000
0000
,
0100
0000
0010
0000
0000
0001
0000
0000
1000
0000
0000
0100
0000
1000
0000
0001
,
0000
0000
0100
0000
0000
0001
0000
0000
1000
0000
0000
0010
0000
1000
0000
0001
,
0100
0000
0010
0000
1000
0001
0000
0001
0100
0000
0100
0010
0000
0010
0000
1000
,
0000
0000
0001
0000
0100
0001
0000
0001
1000
0000
1000
0100
0000
0100
0000
0010
,
0000
0000
0001
0000
1000
0100
0000
0100
0010
0000
0010
0100
0000
0100
0000
1000
,
0000
0000
0001
0000
0100
0010
0000
0010
1000
0000
1000
0001
0000
0001
0000
0010
,
0000
0000
0100
0000
0010
0001
0000
0001
1000
0000
1000
0100
0000
0100
0000
1000
,
0000
0000
0001
0000
0100
0001
0000
0001
1000
0000
0001
1000
0001
1000
0010
0100
,
0001
0000
0100
0000
0010
1000
0000
1000
0001
0000
0001
0100
0000
0100
0000
0010
,
1000
0000
0001
0000
0010
0100
0000
0100
1000
0000
1000
0001
0000
0001
0000
1000
,
0100
0000
0010
0000
0100
0010
0000
0010
0001
0000
0001
1000
0000
1000
0000
0001
,
0100
0000
0001
0000
1000
0010
0000
0010
0100
0000
0100
0001
0000
0001
0000
0100
,
0010
0000
0010
0000
1000
0010
0000
0010
0100
0000
0100
0001
0000
0001
0000
1000
,
0001
0000
0100
0000
0010
1000
0010
1000
0010
0000
0100
0000
0001
1000
0001
0000
,
1000
0100
0000
1000
0100
0000
0010
0000
0001
1000
0000
0001
1000
0000
0001
0000
,
0101
0000
0000
0100
0000
0000
0010
0000
1010
0000
0000
1000
0000
0000
0001
0000
,
2000
0000
0000
0002
0000
0000
0000
0000
,
3003
0000
0000
0000
;

//--------------- dance-double - HellKiteChaos ----------------
#NOTES:
     dance-double:
     HellKiteChaos:
     Challenge:
     13:
     0,0,0,0,0:
00000000
00000000
00000000
00000000
,
00000000
00000000
00000000
00000000
00000000
00000000
00000000
00001000
,
00010000
00000000
00001000
00000000
,
00000000
00000000
00000000
00000000
00000000
00000000
00000000
00010000
,
00001000
00000000
00010000
00000000
,
00000000
00000000
00000000
00000000
00000000
00000000
00000000
00001000
,
00010000
00000000
00000000
00000000
00001000
00000000
00000000
00010000
,
00001000
00010000
00001000
00020000
,
00031000
00010000
00000000
00000010
00010000
00001000
00000000
00100000
,
00001000
00010000
00000000
00001000
01000000
00001000
00100000
00010000
,
10000000
00100000
00000000
01000000
00010000
00100000
00000000
01000000
,
10000000
00100000
00000000
01000000
00010000
00100000
00001000
00010000
,
00000100
00000010
00000000
00000001
00000100
00000010
00000000
00001000
,
00000100
00000010
00000000
00000001
00000100
00000010
00001000
00000100
,
00010000
00001000
00000000
00100000
00001000
00010000
00000000
00000010
,
00010000
00000000
00001000
00000000
01000000
00000000
00100000
00000000
10000000
00010000
10000000
00010000
10000000
00010000
10000000
00010000
,
10000000
00000000
00010000
00000000
00000000
01000000
00000000
00000000
00010000
00000000
00000000
10000000
00000000
00100000
00000000
00000000
,
00000000
00000000
10000000
00000000
00000000
01000000
00000000
00000000
00100000
00000000
00000000
00010000
00000000
00010000
00000000
00000000
,
00000000
00000000
00100000
00000000
00000000
00001000
00000000
00000000
00100000
00000000
00000000
00001000
00000000
00001000
00000000
00000000
,
00000000
00000000
00010000
00000000
00000000
00000100
00000000
00000000
00010000
00000000
00000000
00001000
00000000
00001000
00000000
00001000
,
00000000
00000000
00010000
00000000
00000000
00000100
00000000
00000000
00010000
00000000
00000000
00001000
00000000
00001000
00000000
00000000
,
00000000
00000000
00010000
00000000
00000000
00000010
00000000
00000000
00000100
00000000
00000000
00000001
00000000
00000001
00000000
00000000
,
00000000
00000000
00001000
00000000
00000000
00000010
00000000
00000000
00001000
00000000
00000000
00000001
00000000
00000001
00000000
00000000
,
00000000
00000000
00000010
00000000
00000000
00000001
00000000
00000000
00001000
00000000
00000000
00000100
00000000
00000100
00000000
00000100
,
00001000
00000000
00000100
00000000
00000100
00010000
00000000
00010000
00001000
00000000
00001000
00100000
00000000
00100000
00000000
00010000
,
00000000
00000000
10000000
00000000
10000000
01000000
00000000
01000000
00100000
00000000
00100000
00010000
00000000
00010000
00000000
00010000
,
00000000
00000000
10000000
00000000
10000000
00100000
00000000
00100000
01000000
00000000
01000000
00001000
00000000
00001000
00000000
00001000
,
00000000
00000000
00010000
00000000
00010000
00000100
00000000
00000100
00001000
00000000
00001000
00000010
00000000
00000010
00000000
00000010
,
00000000
00000000
00000100
00000000
00000100
00000001
00000000
00000001
00001000
00000000
00001000
00000010
00000000
00000010
00000000
00000010
,
00000000
00000000
00010000
00000000
00010000
00001000
00000000
00001000
00000100
00000000
00000100
00001000
00000000
00001000
00000000
00001000
,
00000000
00000000
00000100
00000000
00000100
00000010
00000000
00000010
00001000
00000000
00001000
00000001
00000000
00000001
00000000
00000001
,
00000100
00000000
00000000
00000100
00000000
00000000
00000000
00000010
00000000
00001000
00000000
00000000
00000010
00001000
00000000
00000001
,
00000200
00000320
00000000
00001000
,
00000100
00000000
00000000
00000000
00001000
00000000
00000000
00000000
00000030
00000000
00000000
00010000
00000000
00000000
00010000
00000000
,
00002000
00100000
00000000
01000000
,
00100000
00000000
00000000
00000000
01000000
00000000
00000000
00000000
00013000
00000000
00000000
00001000
00010000
00000000
00001000
00000000
,
00010000
00001000
01000000
00100000
10000000
01000000
00100000
00010000
,
01000000
00001000
00010000
00000100
00001000
00000010
00000100
00000001
,
00000010
00000100
00001000
00000001
00000100
00001000
00000100
00000001
,
00000000
00001000
00000001
00000000
00000001
00000000
00000000
00001000
00000100
00001000
00000000
00000001
00000010
00000100
00001000
00000000
,
00000000
00000000
00000001
00000000
00000000
00000100
00000000
00000000
00000010
00000000
00000000
00001000
00000000
00001000
00000000
00000000
,
00000000
00000000
00000010
00000000
00000000
00010000
00000000
00000000
00000100
00000000
00000000
00001000
00000000
00001000
00000000
00001000
,
00000100
00000000
00000100
00000000
00001000
00000100
00000000
00000100
00010000
00000000
00010000
00000010
00000000
00000010
00000000
00001000
,
00000000
00000000
00000001
00000000
00000001
00000100
00000000
00000100
00000010
00000000
00000010
00001000
00000000
00001000
00000000
00000100
,
00000000
00000000
00000010
00000000
00000010
00000100
00000000
00000100
00010000
00000000
00010000
00001000
00000000
00001000
00000000
00010000
,
00000000
00000000
00001000
00000000
00001000
01000000
00000000
01000000
00100000
00000000
00100000
10000000
00000000
10000000
00000000
01000000
,
00000000
00000000
00100000
00000000
00010000
10000000
00000000
01000000
00100000
00000000
00010000
10000000
00000000
10000000
00000000
00100000
,
00000000
00000000
01000000
00000000
00100000
01000000
00000000
00010000
10000000
00000000
00100000
01000000
00100000
01000000
00100000
01000000
,
00010000
00000000
01000000
00000000
00010000
00100000
00000000
00100000
00001000
00000000
00001000
00010000
00000000
00010000
00000000
00010000
,
00000000
00000000
00001000
00000000
00001000
00010000
00000000
00010000
00000010
00000000
00000010
00001000
00000000
00001000
00000000
00000001
,
00000000
00000000
00000100
00000000
00000100
00000010
00000000
00000010
00001000
00000000
00001000
00000001
00000000
00000001
00000000
00000001
,
00000000
00000000
00001000
00000000
00000100
00000010
00000000
00000001
00001000
00000000
00000100
00000010
00000000
00000001
00000000
00000100
,
00000000
00000000
00000010
00000000
00001000
00000001
00000000
00000100
00000010
00000000
00001000
00000100
00000000
00000100
00000000
00001000
,
00000000
00000000
00000100
00000000
00000100
00010000
00000000
00010000
00001000
00000000
00001000
01000000
00000000
01000000
00000000
01000000
,
00000000
00000000
00100000
00000000
00100000
10000000
00000000
00010000
01000000
00000000
00100000
10000000
00000000
00100000
00000000
10000000
,
00010000
00000000
00000000
00100000
00000000
00000000
01000000
00000000
10000000
00000000
00000000
00010000
00000000
00000000
01000000
00000000
,
02200000
00000000
00000000
00000000
,
03300000
00000000
00000000
00000000
;
