#TITLE:KISS KISS KISS;
#SUBTITLE:;
#ARTIST:NAOKI feat. SHANTI;
#TITLETRANSLIT:;
#SUBTITLETRANSLIT:;
#ARTISTTRANSLIT:;
#GENRE:;
#CREDIT:;
#MUSIC:KISS KISS KISS.mp3;
#BANNER:KISS KISS KISS.png;
#BACKGROUND:KISS KISS KISS-bg.png;
#CDTITLE:;
#SAMPLESTART:0.000;
#SAMPLELENGTH:0.000;
#SELECTABLE:YES;
#OFFSET:-0.037;
#BPMS:0.000=150.060;
#STOPS:;
#DISPLAYBPM:150.000;
#BGCHANGES:;
#FGCHANGES:;

//--------------- dance-single - HellKiteChaos ----------------
#NOTES:
     dance-single:
     HellKiteChaos:
     Challenge:
     13:
     0,0,0,0,0:
0000
0000
0000
0000
,
0000
0000
0000
0000
,
0000
0000
0000
0000
,
0000
0000
0000
0000
,
0000
0000
1000
0010
0010
0100
0000
0110
,
0000
0101
0000
0010
1000
0001
0000
0100
,
0001
1000
0100
0010
0001
1000
0010
0100
,
0001
0000
0010
0000
0100
0000
0100
0000
1000
0000
0000
0000
0001
1000
0000
0001
,
1000
0001
0200
0000
0010
0000
1000
0000
,
0310
1000
0001
0001
0100
0100
0010
1000
,
0001
0010
0200
0000
1000
0000
0010
0000
,
0301
0100
1000
0000
0001
0100
0000
1000
,
0100
0000
0010
0001
1000
0000
0001
0000
0100
0000
0010
0000
0000
0000
0100
0000
,
0010
1000
0001
0000
0010
0100
0000
1000
,
0001
0010
0001
1000
0010
0000
0100
0001
,
1000
0000
0000
0000
0100
0000
1000
0000
0010
0000
0100
0000
0010
0100
0000
0010
,
0100
0000
0010
0100
0001
0000
1000
0000
0000
0000
1000
0000
0100
0000
0010
0000
,
0001
0010
1000
0001
0000
0100
1000
0001
,
0010
0100
1000
0001
0100
0100
0010
1000
,
0100
0100
0010
0001
1000
0010
1000
0100
,
1002
0000
0103
0010
0000
0100
0010
1000
,
0001
0010
1000
0001
0000
0100
0001
0100
,
1000
0001
0100
0000
0110
0000
1001
0000
,
1100
0202
0000
0000
0003
0000
0300
0000
,
1001
0000
1000
0010
1000
0010
0100
0001
,
0100
0000
0001
1000
0100
0000
1000
0000
0100
0000
1000
0001
0100
0000
0001
0000
,
0100
0000
0010
1000
0001
0000
1000
0000
0100
0000
0010
0001
1000
0000
0001
0000
,
0100
0000
0010
1000
0100
0000
0010
0001
0100
0000
0010
0100
0010
0000
0100
0000
,
1001
0000
1000
0100
1000
0200
0000
0301
,
0100
1000
0002
0000
0203
0000
0310
1000
,
0001
0100
1010
0000
0101
0000
1001
0000
,
1100
0000
0010
0001
1000
0100
0010
0001
,
0100
0010
1000
0100
1000
0010
0000
1010
,
0000
0101
0000
0001
0010
0001
0000
0011
,
0000
1100
0000
1000
0001
0100
0000
0010
,
1000
0000
0001
0000
0200
0000
0000
0301
0000
0000
0001
0000
0020
0000
0000
0031
,
0000
0000
0010
0000
0100
0000
0000
1000
0100
0000
1000
0000
0001
0100
0001
0000
,
1000
0000
0000
0001
1000
0000
0010
0000
0100
0001
0000
0100
0001
0000
0100
0001
,
0000
1000
0100
0000
0010
0001
0000
0010
0001
0000
1000
0100
0000
1000
0100
0000
,
1000
0000
0010
0000
0100
0000
0000
0001
0000
0000
1000
0000
0010
0100
0010
0100
,
0001
1000
0001
0000
1000
0000
0100
0000
0010
0000
0100
0000
1000
0000
0001
0000
,
0100
0000
0010
0100
0001
0000
1000
0000
0100
0000
0010
0000
0100
0000
1000
0000
,
0001
0000
0100
0010
1000
0000
0001
0000
0010
0000
0100
0000
0010
0000
0001
0000
,
1000
0000
0010
0100
0001
0000
1000
0000
0100
0000
0010
0000
0100
0000
1000
0000
,
1001
0000
0001
0100
0010
1000
0100
1000
,
0100
0000
0010
0001
0100
0000
0001
0000
0100
0000
0001
0000
0100
0000
0010
0000
,
1000
0100
0000
0000
1100
0000
0101
0000
,
0110
2002
0000
0000
3000
0000
0003
0000
,
1001
0000
0001
0100
0001
0100
0010
1000
,
0010
0000
1000
0001
0010
0000
0001
0000
0010
0000
0001
1000
0010
0000
1000
0000
,
0010
0000
0100
0001
1000
0000
0001
0000
0010
0000
0100
1000
0001
0000
1000
0000
,
0010
0000
0100
0001
0010
0000
0100
1000
0010
0000
0100
0010
0100
0000
0010
0000
,
1001
0000
0001
0010
0001
0020
0000
1030
,
0010
0001
2000
0000
3020
0000
0130
0001
,
1000
0010
0101
0000
1010
0000
1001
0000
,
0011
0000
0100
1000
0001
0010
0100
1000
,
0010
0100
0001
0010
0001
0100
0010
1000
,
0100
0000
1000
0010
0100
0010
0100
0001
,
1000
0000
0100
0010
0001
0100
1000
0100
,
0010
0000
0100
0000
0001
0000
1000
0001
1000
0000
0100
0000
0010
0000
0001
0010
,
0001
1000
0100
0000
1100
0000
1000
0001
,
0100
0010
2000
0000
0000
0000
0001
0000
,
0001
0002
0000
0000
3003
0000
0000
0000
;

//--------------- dance-double - HellKiteChaos ----------------
#NOTES:
     dance-double:
     HellKiteChaos:
     Challenge:
     13:
     0,0,0,0,0:
00000000
00000000
00000000
00000000
,
00000000
00000000
00000000
00000000
,
00000000
00000000
00000000
00000000
,
00000000
00000000
00000000
00000000
,
00000000
00000000
00001000
00010000
00001000
00020000
00000000
00032000
,
00000000
00203000
00000000
00301000
00100000
00020000
00000000
10030000
,
01000000
00100000
00010000
10000000
00100000
01000000
00010000
00100000
,
01000000
00000000
10000000
00000000
00010000
00000000
00010000
00000000
01000000
00000000
01000000
00000000
00001000
00010000
00001000
00010000
,
00001000
00010000
00002000
00000000
01000000
00000000
00010000
00000000
,
01000000
00023000
00000010
00000100
,
00001000
00030020
00001000
00010000
,
00001030
00000001
00000200
00000000
00000010
00000000
00001000
00000000
,
00000310
00000100
00000020
00000000
00001000
00000000
00010000
00000000
,
00001030
00000010
00020000
00000000
00001000
00000000
00000100
00000000
,
00031000
01000000
00002000
00000000
01000000
00000000
00100000
00000000
,
00023000
00000000
02030000
00000000
23000000
00000000
30010000
10000000
,
00100000
00000000
01000000
00000000
00010000
00000000
10000000
00000000
01000000
00000000
00100000
00010000
10000000
00000000
00100000
00000000
,
01000000
00000000
00100000
01000000
00001000
00000000
01000000
00000000
00001000
00000000
00010000
00001000
00010000
00000000
00000100
00000000
,
00010000
00000000
00000010
00001000
00000010
00000000
00000100
00000000
00000010
00000000
00001000
00000001
00000100
00000000
00000001
00000000
,
00001000
00000000
00000100
00010000
00001000
00000000
00100000
00000000
00010000
00000000
10000000
00000000
01000000
00000000
00100000
00000000
,
01000000
00000000
00100000
00000000
00010000
00000000
10000000
00000000
01000000
00000000
00100000
00010000
00100000
00000000
01000000
00000000
,
10000000
00000000
00010000
01000000
00010000
00000000
10000000
00000000
00100000
00000000
10000000
01000000
10000000
00000000
01000000
00000000
,
01000000
01000000
00100000
00000000
00110000
00000000
00101000
00000000
,
00002000
00020000
00000000
00000000
00003000
00000000
00030000
00000000
,
00011000
00000000
00001000
00100000
00001000
00100000
00000010
00001000
,
00000010
00001000
00000100
00010000
00000100
00010000
00001000
01000000
,
00001000
01000000
00100000
10000000
01000000
00010000
00001000
00000010
,
00000100
00000100
00000010
00000001
00000100
00000010
00001000
00000100
,
00001100
00000000
00000100
00000010
00000001
00000010
00000100
00001000
,
00000001
00000100
00000010
00010000
00000010
00000100
00001000
00010000
,
00100000
01000000
00100000
00000000
01100000
00000000
01000000
00100000
,
01000000
00000000
00001000
00000000
00010000
00000000
00000000
00000000
00011000
00000000
00000000
00000000
00001000
00010000
00001000
00010000
,
00000100
00010000
00001000
00001000
00001000
00200000
00000000
00320000
,
00000000
20030000
00000000
30100000
01000000
00020000
00000000
02030000
,
00000000
03001000
00020000
00030000
00001000
00020000
00030000
00001000
,
00000100
00000000
00000010
00000000
00001000
00000000
00000000
00001000
00000000
00000000
00001000
00000000
00000001
00000000
00000000
00000001
,
00000000
00000000
00000001
00000000
00000010
00000000
00000100
00001000
00000100
00000000
00000010
00000000
00000100
00001000
00000100
00000000
,
00000010
00000000
00000001
00000000
00000100
00000000
00000020
00000000
00000000
00002030
00000000
00000000
00003200
00000000
00000000
00020300
,
00000000
00000000
00031000
00000000
00010000
00001000
00000000
00010000
00001000
00000000
00010000
00001000
00000000
00010000
00001000
00000000
,
01000000
00000000
00100000
00000000
20000000
00000000
00000000
32000000
00000000
00000000
03200000
00000000
00000000
00320000
00000000
00000000
,
01030000
00100000
01000000
00100000
10000000
01000000
00100000
00010000
,
01000000
00001000
00010000
00001000
00010000
00001000
00000100
00000010
,
00001000
00000001
00000010
00000001
00000010
00000001
00001000
00000100
,
00010000
00000100
00001000
00000001
00000010
00000001
00000100
00000010
,
00001000
00000100
00010000
00001000
00010000
00001000
00100000
00010000
,
01000000
00100000
10000000
01000000
10000000
01000000
00100000
00010000
,
01000000
00001000
00010000
00000000
00002000
00000000
00023000
00000000
,
00001000
00002000
00000000
00000000
00003000
00000000
00030000
00000000
,
00011000
00000000
00000000
00000000
00001000
00000000
00100000
00000000
00010000
00000000
10000000
01000000
10000000
00000000
00010000
00000000
,
01000000
00000000
00001000
01000000
00001000
00000000
01000000
00000000
00100000
00000000
10000000
00010000
10000000
00000000
01000000
00000000
,
00100000
00000000
00010000
00100000
00010000
00000000
00100000
00000000
00001000
00000000
00010000
00000100
00010000
00000000
00001000
00000000
,
00010000
00000000
00000010
00001000
00000010
00000000
00001000
00000001
00001000
00000000
00000001
00000100
00000001
00000000
00000100
00000000
,
00000110
00000000
00000100
00000010
00000100
00001000
00010000
00100000
,
01000000
00010000
10000000
00000000
11000000
00000000
00110000
00000000
,
01010000
00000000
01000000
00001000
01000000
00100000
01000000
00010000
,
00100000
00001000
00010000
00000100
00010000
00000010
00010000
00000100
,
00001000
00000001
00001002
00000000
00000103
00000000
00000010
00010000
,
00000010
00010000
00020010
00000000
00032000
00000000
01003000
00001000
,
01000000
00010000
10000000
01000000
00100000
10000000
00100000
01000000
,
10000000
00010000
01000000
00100000
00010000
00001000
00000100
00000010
,
00001000
00000001
00000200
00000000
00000320
00000000
00001030
00000001
,
00000100
00000010
00002000
00000000
00000000
00000000
00000100
00000100
,
00000100
00000200
00000000
00000000
00003300
00000000
00000000
00000000
;
