#TITLE:KEEP ON MOVIN';
#SUBTITLE:;
#ARTIST:N.M.R;
#TITLETRANSLIT:;
#SUBTITLETRANSLIT:;
#ARTISTTRANSLIT:;
#GENRE:Dance Dance Revolution 3rd Mix,Dancing Stage Euromix 1;
#CREDIT:;
#MUSIC:KEEP ON MOVIN'.mp3;
#BANNER:KEEP ON MOVIN'.png;
#BACKGROUND:KEEP ON MOVIN'-bg.png;
#CDTITLE:;
#SAMPLESTART:0.000;
#SAMPLELENGTH:0.000;
#SELECTABLE:YES;
#OFFSET:-0.039;
#BPMS:0.000=132.000;
#STOPS:;
#DISPLAYBPM:132.000;
#BGCHANGES:;
#FGCHANGES:;

//--------------- dance-single - HellKiteChaos ----------------
#NOTES:
     dance-single:
     HellKiteChaos:
     Challenge:
     12:
     0,0,0,0,0:
0000
0000
0000
0000
,
0000
0000
0000
0000
,
0000
0000
0000
0000
,
0000
0000
0000
0000
,
1000
1000
0010
0010
1000
0100
0010
0001
,
1000
0001
1000
0001
0000
0100
0010
0000
1000
0000
0001
0000
0100
0010
0000
1020
,
0000
1030
0001
0001
1000
1000
0100
0010
,
0011
0101
1100
0011
,
1000
1000
0001
0001
0010
0010
0100
1000
,
0001
0100
0001
0100
0000
0010
1000
0000
0001
0000
0100
0000
0010
1000
0000
1200
,
0000
1300
1001
0000
0001
0100
0101
0000
,
0010
1000
0000
0001
0100
0000
0001
0000
1000
0000
0100
0000
0001
0000
1000
0000
,
0001
0000
1000
0100
2000
0000
0000
0000
3000
0000
0001
0100
0002
0000
0000
0000
,
1003
0010
1000
0010
0100
0001
1000
0000
,
0000
0000
0001
0010
0002
0000
0000
0000
0003
0000
1000
0010
2000
0000
0000
0000
,
3010
0100
0010
0100
0001
1000
0010
0000
,
1000
0100
1100
0000
0001
0010
0011
0000
,
0001
1000
0010
1000
0100
1000
0001
0000
,
0100
0100
0101
0000
0010
0010
1010
0000
,
1000
0001
0010
0001
0100
0010
1000
0100
,
0010
0001
1000
0001
0010
0001
0100
0001
,
1000
0001
0100
0001
0010
0001
1000
0010
,
1000
0100
1000
0001
1000
0010
1000
0001
,
1000
0100
1000
0010
0100
0001
1000
0000
,
0001
0010
0001
1000
0001
0100
0010
1000
,
0100
1000
0001
1000
0010
0100
0001
0010
,
0100
0100
1000
1000
0001
0001
0100
0100
,
0010
0010
0000
0100
0010
0010
1001
0000
,
0001
0001
0100
0100
0001
0010
0100
1000
,
0001
1000
0001
1000
0000
0010
0100
0000
0001
0000
1000
0000
0010
0100
0000
0201
,
0000
0301
1000
1000
0001
0001
0010
0100
,
1100
1010
0011
1100
,
0001
0001
1000
1000
0100
0100
0010
0001
,
1000
0010
1000
0010
0000
0100
0001
0000
1000
0000
0010
0000
0100
0001
0000
0021
,
0000
0031
1001
0000
1000
0010
1010
0000
,
0100
0001
0000
1000
0010
0000
1000
0000
0001
0000
0010
0000
1000
0000
0001
0000
,
2002
0000
3003
0000
;

//--------------- dance-double - HellKiteChaos ----------------
#NOTES:
     dance-double:
     HellKiteChaos:
     Challenge:
     12:
     0,0,0,0,0:
00000000
00000000
00000000
00000000
,
00000000
00000000
00000000
00000000
,
00000000
00000000
00000000
00000000
,
00000000
00000000
00000000
00000000
,
00001000
00001000
00100000
00100000
00010000
00010000
01000000
00100000
,
10000000
00010000
10000000
00010000
00000000
10000000
01000000
00000000
00100000
00000000
00010000
00000000
10000000
01000000
00000000
00120000
,
00000000
01030000
01000000
00010000
00010000
01000000
00001000
00010000
,
00021000
00030200
00000320
00000032
,
00001003
00001000
00000010
00000010
00010000
00010000
00000100
00001000
,
00000010
00000100
00000010
00000100
00000000
00000001
00000100
00000000
00000010
00000000
00001000
00000000
00000010
00010000
00000000
00000010
,
00010000
00000010
00010000
00000000
00002000
00000000
00000000
00000000
00013000
00000000
01000000
00000000
00200000
00000000
00000000
00000000
,
00310000
00100000
01000000
00100000
00010000
10000000
00010000
01000000
,
00100000
01000000
01010000
00000000
00010000
00100000
00110000
00000000
,
00100000
01000000
00010000
00001000
00000010
00000100
00000010
00000000
,
00000010
00000001
00001100
00000000
00001000
00000010
00000101
00000000
,
00000100
00000010
00001000
00000100
00010000
00001000
00010000
00001000
,
00000000
00000000
01000000
00000000
00000000
00100000
00000000
00000000
10000000
00000000
00010000
00000000
01000000
00000000
00000000
00000000
,
00010000
00100000
00010000
01000000
00001000
00010000
00001000
00000000
,
00010000
00000010
00010000
00001000
00010000
00000100
00010000
00001000
,
00100000
00010000
01000000
00001000
00010000
00000010
00001000
00000001
,
00000100
00000001
00000100
00000010
00001000
00000010
00001000
00000100
,
00000010
00000001
00000100
00000010
00010000
00001000
00010000
00001000
,
01000000
00010000
01000000
00100000
01000000
10000000
01000000
00100000
,
01000000
00010000
10000000
00100000
01000000
00010000
10000000
00000000
,
00010000
00100000
01000000
10000000
01000000
00010000
00001000
00000010
,
00000001
00001000
00000001
00000010
00001000
00010000
01000000
10000000
,
00010000
10000000
00010000
01000000
00100000
10000000
01000000
00100000
,
00001000
00010000
00001000
01000000
00100000
01000000
00010000
10000000
,
00010000
00010000
01000000
01000000
00001000
00010000
00001000
00010000
,
00000100
00010000
00000100
00010000
00000000
00000100
00001000
00000000
00000001
00000000
00000010
00000000
00000001
00001000
00000000
00001200
,
00000000
00000000
00010300
00010000
00000100
00010000
00001000
00100000
,
00020000
02030000
03200000
02300000
,
03010000
00010000
01000000
01000000
00001000
01000000
00010000
10000000
,
00100000
10000000
00100000
10000000
00000000
00010000
01000000
00000000
00010000
00000000
00100000
00000000
00010000
10000000
00000000
00010000
,
10000000
00010000
10000000
00000000
11000000
00000000
00000000
00000000
00100000
00010000
00100000
00000000
00110000
00000000
00000000
00000000
,
00010000
00100000
00001000
00010000
00000100
00000010
00000001
00000100
,
00000220
00000000
00000330
00000000
;
