#TITLE:HYPNOTIC CRISIS;
#SUBTITLE:;
#ARTIST:BLUE DESTROYERS;
#TITLETRANSLIT:;
#SUBTITLETRANSLIT:;
#ARTISTTRANSLIT:;
#GENRE:Dance Dance Revolution 4th Mix,Dancing Stage Euromix 2;
#CREDIT:;
#MUSIC:HYPNOTIC CRISIS.mp3;
#BANNER:HYPNOTIC CRISIS.png;
#BACKGROUND:HYPNOTIC CRISIS-bg.png;
#CDTITLE:;
#SAMPLESTART:0.000;
#SAMPLELENGTH:0.000;
#SELECTABLE:YES;
#OFFSET:-0.042;
#BPMS:0.000=135.000;
#STOPS:;
#DISPLAYBPM:135.000;
#BGCHANGES:;
#FGCHANGES:;

//--------------- dance-single - HellKiteChaos ----------------
#NOTES:
     dance-single:
     HellKiteChaos:
     Challenge:
     14:
     0,0,0,0,0:
0000
0000
0000
0000
,
0000
0000
0000
0000
,
0000
0000
0000
0000
,
2000
0000
3002
0100
0003
2000
0100
3000
0002
0100
0003
1000
0100
1000
0100
1000
,
0001
0000
0100
0000
0010
0000
2000
0000
3000
0001
1000
0000
1000
0000
0110
0000
,
0002
0000
0003
1000
0100
0000
0200
0000
0300
0010
0001
0000
0001
0000
1000
0000
,
0001
0010
0001
1000
0001
0000
1000
0100
1000
0100
0010
0001
1000
0000
0001
0000
,
1000
0010
1000
0010
0100
0010
0000
0100
0010
0100
0001
0000
1001
0000
0000
0000
,
0002
0000
0003
0010
0100
0000
0200
0000
0300
0010
0100
1000
0001
0000
0100
0000
,
0200
0000
0300
0010
1000
0000
2000
0000
3000
0001
0100
0010
1000
0000
0000
0000
,
0010
0100
0001
1000
0010
0000
0100
0001
0100
0001
1000
0001
1000
0000
0001
0000
,
0100
0000
0100
0000
0010
1000
0000
1000
0000
0001
0100
0000
1001
0000
0000
0000
,
1002
0000
0100
0000
0000
0000
0010
0000
0003
1000
0000
0001
0010
0000
0000
0000
,
2001
0000
0100
0000
0000
0000
0010
0000
3000
0001
0000
1000
0010
0000
0000
0000
,
0102
0000
1000
0000
0000
0000
0010
0000
0003
1000
0000
0001
0100
0000
0000
0000
,
2010
0000
0001
0000
0000
0000
0100
0000
3000
0010
0000
1000
0001
0000
0000
0000
,
1000
0000
0010
0100
0001
0000
0200
0000
0000
0000
0310
0000
0010
0000
1000
0000
,
0001
0000
0010
0100
1000
0000
0020
0000
0000
0000
0130
0000
0100
0000
0001
0000
,
1000
0001
1000
0100
0010
0000
0001
0010
0100
1000
0001
0010
0001
0000
1000
0000
,
0010
1000
0001
0100
0010
1000
0100
0010
0001
1000
0100
0010
0001
0000
0000
0000
,
0001
0000
0100
0010
1000
0000
0020
0000
0000
0000
0130
0000
0100
0000
0001
0000
,
1000
0000
0100
0010
0001
0000
0200
0000
0000
0000
0310
0000
0010
0000
1000
0000
,
0001
1000
0001
0010
0100
0000
1000
0100
0010
0001
1000
0100
1000
0000
0001
0000
,
0100
0001
1000
0010
0100
0001
0010
0100
1000
0001
0010
0100
1000
0000
0000
0000
,
2001
0000
0010
0000
0000
0000
0100
0000
3000
0001
0000
1000
0100
0000
0000
0000
,
1002
0000
0010
0000
0000
0000
0100
0000
0003
1000
0000
0001
0100
0000
0000
0000
,
2010
0000
0001
0000
0000
0000
0100
0000
3000
0001
0000
1000
0010
0000
0000
0000
,
0102
0000
1000
0000
0000
0000
0010
0000
0003
0100
0000
0001
1000
0000
0000
0000
,
0001
0100
0000
0000
0020
0000
0000
0000
0030
0000
1000
0000
1000
0000
0001
0000
,
1000
0100
0000
0000
1000
0100
0000
0000
0020
0000
0000
0030
0000
0001
0010
0000
,
0010
0100
0000
1000
0000
0100
0000
1000
0000
0010
0000
0100
0000
0001
0100
0001
,
0100
0000
0000
0010
1000
0000
0000
0001
0010
0001
0100
0001
1000
0100
1000
0100
,
0010
0001
0010
0001
1000
0000
0000
0001
0000
0100
0000
0001
0000
0100
0010
0100
,
0010
1000
0000
0010
0100
0001
0000
0100
0000
0010
0000
0100
0000
0010
1000
0001
,
0100
0010
0000
0100
0000
0010
0000
1000
0000
0001
0000
1000
0000
0100
0010
0100
,
0010
0001
0000
0010
0100
1000
0000
0001
0000
1000
0000
0001
0000
0100
0010
0100
,
0010
1000
0000
0010
0100
0000
0001
1000
0000
1000
0000
1000
0000
0001
1000
0001
,
0010
0100
0000
0010
0100
1000
0000
0001
0000
0001
0000
0001
0000
1000
0001
0100
,
0010
1000
0000
0010
0000
0010
0000
0010
0000
0010
0000
0010
0000
0100
0010
0100
,
0001
1000
0000
0001
1000
0100
0000
0010
0001
0010
0001
1000
0001
1000
0001
0100
,
0020
0230
0320
2030
0002
3000
0200
0003
,
0320
2030
3020
0200
0000
0030
0002
0000
,
0303
2100
0000
3001
0000
0012
0000
0103
,
0000
0000
0120
0000
0000
0000
1030
0000
0000
1010
0000
0101
0000
1010
0000
0000
,
0200
0302
2003
3200
0002
0300
0200
0003
,
2300
3002
0203
0020
0000
0300
2000
0030
,
3000
0000
0010
0100
0000
0000
0001
0100
0000
0000
0010
1000
0000
0000
0001
0010
,
0100
0000
0010
0100
0010
0100
1000
0000
1001
0000
1001
0000
1000
0010
0100
0000
,
2002
3003
0000
0000
;

//--------------- dance-double - HellKiteChaos ----------------
#NOTES:
     dance-double:
     HellKiteChaos:
     Challenge:
     15:
     0,0,0,0,0:
00000000
00000000
00000000
00000000
,
00000000
00000000
00000000
00000000
,
00000000
00000000
00000000
00000000
,
00001000
00000000
00020000
00000010
00030000
00020000
00000100
00030000
00020000
00000010
00030000
00001000
00000010
00001000
00000010
00001000
,
00000001
00000000
00000010
00000000
00000100
00000000
00002000
00000000
00003000
00000001
00001000
00000000
00000001
00000000
00000110
00000000
,
00002000
00000000
00003000
00000001
00000010
00000000
00000020
00000000
00000030
00000100
00001000
00000000
00001000
00000000
00000100
00000000
,
00010000
00000100
00010000
00001000
00010000
00000000
00001000
00100000
00001000
00100000
00001000
00100000
00010000
00000000
00010000
00000000
,
01000000
00010000
01000000
00000000
00100000
01000000
00100000
01000000
00100000
01000000
00010000
00000000
10010000
00000000
00000000
00000000
,
00020000
00000000
00030000
01000000
00001000
00000000
00020000
00000000
00030000
00001000
00010000
00000000
00000010
00000000
00000100
00000000
,
00000200
00000000
00000300
00000100
00000001
00000000
00000002
00000000
00000003
00001000
00000010
00000100
00000001
00000000
00000000
00000000
,
00000100
00000010
00001000
00000010
00001000
00000000
00000010
00001000
00000001
00001000
00000001
00001000
00000001
00000000
00001000
00000000
,
00000010
00000000
00000010
00000000
00001000
00000100
00000000
00010000
00000000
00000100
00010000
00000000
00011000
00000000
00000000
00000000
,
00012000
00000000
00010000
00000000
00000000
00000000
00100000
00000000
00000000
00103000
00000000
00100000
00001000
00000000
00000000
00000000
,
00021000
00000000
00001000
00000000
00000000
00000000
00000010
00000000
00000000
00030010
00000000
00000010
00010000
00000000
00000000
00000000
,
00012000
00000000
00010000
00000000
00000000
00000000
01000000
00000000
00000000
01003000
00000000
01000000
00001000
00000000
00000000
00000000
,
00021000
00000000
00001000
00000000
00000000
00000000
00000100
00000000
00000000
00030100
00000000
00000100
00010000
00000000
00000000
00000000
,
00001000
00000000
01000000
00100000
10000000
00000000
02000000
00000000
00000000
00000000
03100000
00000000
00100000
00000000
00010000
00000000
,
10000000
00000000
00100000
01000000
00010000
00000000
00200000
00000000
00000000
00000000
01300000
00000000
01000000
00000000
00010000
00000000
,
00001000
00010000
00000100
00010000
00000100
00000000
00000010
00000100
00000010
00000001
00001000
00000100
00000010
00000000
00000001
00000000
,
00001000
00000010
00001000
00000010
00000100
00000001
00001000
00000010
00010000
00000100
00010000
00001000
00020000
00000000
00000000
00000000
,
00031000
00000000
00010000
00000010
00001000
00000000
00000020
00000000
00000000
00000000
00000130
00000000
00000100
00000000
00000001
00000000
,
00001000
00000000
00000001
00000010
00000100
00000000
00002000
00000000
00000000
00000000
00003010
00000000
00000010
00000000
00000100
00000000
,
00000010
00000100
00000010
00010000
00001000
00000000
00010000
00001000
00100000
00010000
00100000
01000000
10000000
00000000
00010000
00000000
,
10000000
00100000
10000000
00100000
01000000
00010000
01000000
00010000
10000000
01000000
00100000
00010000
10000000
00000000
00000000
00000000
,
20010000
00000000
00100000
00000000
00000000
00000000
01000000
00000000
30000000
00010000
00000000
10000000
01000000
00000000
00000000
00000000
,
10020000
00000000
00100000
00000000
00000000
00000000
01000000
00000000
00030000
10000000
00000000
00010000
01000000
00000000
00000000
00000000
,
02010000
00000000
00010000
00000000
00000000
00000000
00001000
00000000
00000000
03010000
00000000
01000000
00100000
00000000
00000000
00000000
,
20100000
00000000
00100000
00000000
00000000
00000000
00001000
00000000
00000000
31000000
00000000
10000000
01000000
00000000
00000000
00000000
,
00010000
00100000
00000000
00000000
00200000
00000000
00000000
00000000
00300000
00000000
00001000
00000000
00001000
00000000
00010000
00000000
,
00000010
00001000
00000000
00000000
00000001
00000100
00000000
00000000
00000020
00000000
00000000
00000030
00000000
00000100
00000010
00000000
,
00001000
00000001
00000000
00001000
00000000
00000100
00000000
00000010
00000000
00000001
00000000
00000100
00000000
00000010
00001000
00000010
,
00001000
00000010
00000000
00000100
00000001
00000100
00000000
00000010
00001000
00000100
00000010
00000001
00000100
00000010
00010000
00001000
,
00100000
00010000
00100000
00010000
10000000
00000000
00000000
00010000
00000000
01000000
00000000
00010000
00000000
10000000
00010000
00100000
,
00001000
00100000
00000000
00100000
01000000
00010000
00000000
01000000
00000000
00100000
00000000
00010000
00000000
00100000
00001000
00010000
,
00000100
00000010
00000000
00000001
00000000
00000100
00000000
00000010
00000000
00001000
00000000
00000100
00000000
00000010
00000001
00000010
,
00000001
00000100
00000000
00000010
00000100
00001000
00000000
00000100
00000000
00000001
00000000
00000010
00000000
00001000
00000010
00001000
,
00010000
00001000
00000000
00001000
00010000
00000000
00001000
01000000
00000000
00100000
00000000
10000000
00000000
00010000
10000000
00010000
,
00100000
01000000
00000000
00100000
01000000
00010000
00000000
01000000
00000000
10000000
00000000
00010000
00000000
10000000
00010000
01000000
,
00100000
10000000
00000000
00100000
00000000
00010000
00000000
00001000
00000000
00000100
00000000
00000010
00000000
00001000
00000100
00000010
,
00000001
00001000
00000000
00000010
00000100
00000001
00000000
00001000
00000100
00000010
00000001
00000100
00000010
00010000
00001000
00010000
,
00000020
00002030
00003020
00000230
00000302
00000000
00002000
00000003
,
00003020
00000230
00002300
00023000
00000000
00000000
00230000
00000000
,
00300000
20100000
00000000
30010000
00000000
00120000
00000000
01030000
,
00000000
00000000
01200000
00000000
00000000
00000000
00310000
00000000
00000000
00001000
00000000
00010000
00000000
00010010
00000000
00000000
,
00000020
00002030
00003002
00000023
00002000
00000030
00000020
00003000
,
00000032
00002003
00003020
00000200
00000000
00000030
00000002
00000300
,
00000003
00000000
00001000
00000010
00000000
00000000
00000100
00000001
00000000
00000000
00001000
00000100
00000000
00000000
00010000
00001000
,
00100000
00000000
00100000
01000000
00100000
01000000
10000000
00000000
10010000
00000000
10010000
00000000
10000000
00100000
01000000
00000000
,
20020000
30030000
00000000
00000000
;
