#TITLE:Groove;
#SUBTITLE:;
#ARTIST:Sho-T feat. Brenda;
#TITLETRANSLIT:;
#SUBTITLETRANSLIT:;
#ARTISTTRANSLIT:;
#GENRE:;
#CREDIT:;
#MUSIC:Groove.mp3;
#BANNER:Groove.png;
#BACKGROUND:Groove-bg.png;
#CDTITLE:;
#SAMPLESTART:0.000;
#SAMPLELENGTH:0.000;
#SELECTABLE:YES;
#OFFSET:-0.090;
#BPMS:0.000=130.000;
#STOPS:;
#DISPLAYBPM:130.000;
#BGCHANGES:;
#FGCHANGES:;

//--------------- dance-single - HellKiteChaos ----------------
#NOTES:
     dance-single:
     HellKiteChaos:
     Challenge:
     12:
     0,0,0,0,0:
0000
0000
0000
0000
,
0000
0000
0000
0000
,
0000
0000
0000
0000
,
0000
0000
0000
0000
1100
0001
0101
0000
,
1000
0000
0001
0000
0100
0000
0001
0000
1000
0000
0010
0000
1000
0000
0000
1000
,
0001
0100
0001
0100
0101
1000
1100
0000
,
1000
0001
0010
0001
0100
0001
1000
0010
,
0100
0001
0100
0000
0001
1000
0001
0000
1000
0000
0010
0000
0100
0010
0100
0000
,
0210
0001
0010
1000
,
0010
0000
0301
1000
0101
1000
1100
0000
,
0021
0000
1000
0000
0100
0000
0031
1000
,
0001
1000
0001
0000
0100
0001
0100
0000
0010
0000
1000
0000
0001
0000
0100
0000
,
0110
0000
0000
0000
0100
0000
0001
0000
1000
0000
0001
0000
0100
0000
0000
0010
,
1000
0001
1000
0001
0101
1000
1100
0001
,
0102
0000
2003
0000
3100
1000
0001
0100
,
0001
0000
0001
0000
0001
1000
0001
0000
1000
0000
0001
1000
0010
0000
0100
0000
,
0001
0000
1000
0000
0001
0000
0000
0100
0010
0000
1000
0000
0001
0000
0000
1000
,
0100
1000
0100
0010
0001
0100
0010
0010
,
1020
0000
0000
0000
1030
0000
0000
0001
0100
0000
0100
0000
0010
0000
0000
0000
,
1000
0010
1000
0100
1100
0001
0101
1000
,
1200
0000
0000
0000
0310
0000
0001
0000
1000
0000
0001
0000
0100
0000
0000
0001
,
0100
0001
1000
0010
0100
0010
1000
0001
,
1002
0000
0000
0000
1003
0000
0100
0000
0010
0000
0001
0000
1000
0000
0000
0100
,
0010
0100
0010
0001
0101
1000
1100
0001
,
0101
0000
0100
0000
0010
1000
0010
0000
0000
0000
0100
0000
0001
0100
0001
0000
,
0000
1000
0010
0200
0000
0310
0100
0010
,
1000
0000
0100
0000
1000
0100
2000
0000
0000
0000
3001
0000
0010
0001
0020
0000
,
0000
0130
1000
0001
0101
1000
1100
0001
,
0101
0000
0000
0000
0010
1000
0020
0000
0000
0000
1030
0000
0001
0100
0002
0000
,
0000
1003
0001
0100
0001
0010
0001
1000
,
0002
0000
0000
2000
0000
0000
3003
0000
,
0001
1000
0001
1000
1001
1001
1001
1001
,
2001
0000
0000
0000
3100
0000
0010
0001
0020
0000
0000
0000
0130
0000
1000
0000
,
0001
0100
1000
0100
0001
1000
0001
1000
,
1002
0000
0000
0000
0103
0000
0010
1000
0020
0000
0000
0000
0130
0000
0001
0000
,
1000
0100
0001
0100
1000
1000
1000
1000
,
2001
0000
0000
0000
3100
0000
0010
0000
1002
0000
0000
0000
0103
0000
0010
0100
,
0010
1000
0001
0100
0010
1000
0100
0010
,
0012
0000
0000
0000
1003
0000
0100
1000
0200
0000
0000
0000
0310
0000
0001
0000
,
1000
0000
0001
0000
1000
0000
0001
0000
1001
0000
0001
1000
0001
0000
1000
0000
,
2001
0000
0000
0000
3010
0000
0100
0001
0200
0000
0000
0000
0310
0000
1000
0010
,
1000
0001
0001
0100
0100
0010
1000
0001
,
1002
0000
0000
0000
0013
0000
0100
1000
0200
0000
0000
0000
0310
0000
0001
0010
,
0001
1000
1000
0100
0100
0010
0001
1000
,
1020
0000
0000
0000
0130
0000
0001
0100
0002
0000
0000
0000
1003
0000
0010
1000
,
0010
0100
0100
0001
0001
1000
0100
1000
,
1002
0000
0103
0001
2001
0000
3100
1000
,
0001
1000
0001
1000
0101
1000
1100
0001
,
0202
0303
0000
0000
;

//--------------- dance-double - HellKiteChaos ----------------
#NOTES:
     dance-double:
     HellKiteChaos:
     Challenge:
     12:
     0,0,0,0,0:
00000000
00000000
00000000
00000000
,
00000000
00000000
00000000
00000000
,
00000000
00000000
00000000
00000000
,
00000000
00000000
00011000
00011000
,
00011000
00001000
00000000
01000000
00001000
00010000
00000000
00000100
,
00010000
00001000
00100000
00010000
10000000
01000000
00010000
00001000
,
00010000
00000000
00001000
00100000
00010000
00000000
00100000
00001000
,
00010000
00010000
00000100
00000100
00000010
00000010
00000001
00000100
,
00002000
00023000
00230000
20300000
,
32000000
03020000
00030200
00000320
,
00000032
00000203
00002300
00023000
,
00130000
00100000
10000000
10000000
10100000
10000000
10010000
00010000
,
01010000
00000000
01000000
00000000
00100000
00000000
00000000
00000000
01000000
00000000
01000000
00000000
00010000
00000000
00000000
10000000
,
01000000
01000000
00100000
00001000
00010000
00000100
00000010
00000010
,
00000002
00000000
00000000
00000000
00001003
00000000
00000000
00001000
00000020
00000000
00000000
00000000
00000130
00000000
00000000
00000000
,
00000110
00000000
00000100
00000000
00000001
00000000
00001000
00000000
00001100
00000000
00000100
00000010
00000100
00000000
00001000
00000000
,
00001001
00000002
00000100
00000003
00000100
00000020
00001000
00000030
,
00001000
00000000
00000100
00000000
00001000
00000000
00000010
00000000
00010000
00000000
00001000
00000000
00010000
00001000
00020000
00000000
,
00001000
00030000
00001000
00200000
01000000
00300000
01100000
00000000
,
01000000
10000000
00100000
01000000
01010000
00010000
11000000
10000000
,
01010000
02000000
00010000
03000000
00010000
00200000
00001000
00300000
,
00001000
00010000
00001000
00000100
00000010
00001000
00000100
00000020
,
00000001
00000030
00000001
00002000
00000020
00003000
00000130
00000100
,
00000001
00001000
00000001
00001000
00001100
00000001
00000101
00001000
,
00001100
00000000
00000100
00000000
00010000
00000100
00020000
00000000
00000000
00000000
00031000
00000000
00100000
00001000
00200000
00000000
,
00000000
01300000
00100000
01000000
10000000
00010000
01000000
00010000
,
01010000
00000000
01000000
00100000
01000000
00000000
00020000
00000000
00000000
00000000
10030000
00100000
10000000
00000000
00200000
00000000
,
00000000
10300000
00100000
00010000
00001000
00000100
00000010
00000010
,
00001000
00000000
00000001
00000000
00001000
00000200
00001000
00000000
00000300
00000000
00010000
00000000
00001000
00020000
00001000
00000000
,
00030000
00001000
00010000
00001000
00010000
01000000
00100000
00010000
,
22000000
00000000
33000000
02020000
00000000
03030000
00000000
00000000
,
01010000
01010000
01001000
01001000
00011000
00011000
00010010
00010010
,
00000120
00000000
00000130
00000001
00002001
00000000
00003100
00000010
,
00000001
00000010
00000001
00000000
00001000
00000100
00001000
00000000
00000001
00000000
00000010
00000000
00001000
00000000
00010000
00000000
,
00002000
00000000
00103000
00010000
00002000
00000000
00003100
00000010
,
00000001
00000100
00001000
00000100
00001000
00010000
00001000
00010000
,
00012000
00000000
00103000
00001000
00021000
00000000
00030010
00010000
,
00001000
01000000
00001000
00010000
00000100
01000000
00001000
00010000
,
00012000
00000000
00013000
00010000
00020000
00000000
00030010
00000010
,
00000100
00000000
00000100
00000000
00000100
00000000
00000100
00000000
00000100
00000000
00000010
00001000
00000001
00000000
00001000
00000000
,
00002001
00010000
00003002
00002003
,
00003100
00000010
00000001
00000100
00000010
00010000
00001000
00010000
,
00012000
10000000
00023000
00032000
,
01003000
00100000
01000000
00100000
10000000
01000000
10000000
01000000
,
00010000
00001000
00010000
00001000
01000000
00001000
01000000
00001000
,
00010000
00000100
00010000
00000100
00000010
00000001
00000100
00000010
,
00010000
00000010
00010000
00000010
00010000
00001000
00010000
00001000
,
01000000
01000000
01000000
01000000
01010000
01000000
01001000
01000000
,
02000200
03000300
00000000
00000000
;
