#TITLE:Frozen Ray (for EXTREME);
#SUBTITLE:;
#ARTIST:dj TAKA;
#TITLETRANSLIT:;
#SUBTITLETRANSLIT:;
#ARTISTTRANSLIT:;
#GENRE:;
#CREDIT:;
#MUSIC:Frozen Ray (for EXTREME).mp3;
#BANNER:Frozen Ray (for EXTREME).png;
#BACKGROUND:Frozen Ray (for EXTREME)-bg.png;
#CDTITLE:;
#SAMPLESTART:0.000;
#SAMPLELENGTH:0.000;
#SELECTABLE:YES;
#OFFSET:-0.268;
#BPMS:0.000=156.000;
#STOPS:;
#DISPLAYBPM:156.000;
#BGCHANGES:;
#FGCHANGES:;

//--------------- dance-single - HellKiteChaos ----------------
#NOTES:
     dance-single:
     HellKiteChaos:
     Challenge:
     13:
     0,0,0,0,0:
0000
0000
0000
0000
,
0000
0000
0000
0000
,
0000
0000
0000
0000
,
0000
0000
0000
0000
,
1000
0000
0001
0100
0000
0010
1000
0000
,
0001
1100
0010
0001
,
0100
0101
1000
1100
,
0001
0000
0011
0000
0100
1000
0001
0010
,
0100
0100
0100
0000
1000
0000
0001
0100
,
0010
0000
0010
0000
1000
0000
0001
1000
,
0100
0000
1000
0000
0001
0000
0010
0010
,
0100
0000
0000
0000
1000
0000
0001
0000
0001
0000
0000
0000
1000
0001
0000
1000
,
0100
0010
0100
0010
0001
1000
0100
0010
,
0001
0000
1000
0000
0001
0000
1000
0000
0010
0000
0000
0100
0001
0000
1000
0000
,
0001
1000
1001
0000
1000
0000
0100
1000
,
0001
1000
1001
0000
1000
0100
1000
0010
,
0100
0100
0010
0000
0100
1000
0100
0002
,
0003
1000
0100
0020
0030
0001
0010
1000
,
0010
0001
1000
0000
0100
0001
0100
2000
,
3000
0002
0003
0200
0300
0010
1000
0010
,
0100
0001
0010
0000
1000
0010
0001
0200
,
0300
0010
1000
0020
0030
0100
0001
0100
,
1000
0200
0300
0001
0010
1000
0010
0001
,
0100
2000
3000
0200
0300
0002
0003
1000
,
0100
1000
0010
0100
0001
0010
0001
0000
,
0100
0010
0100
0001
0010
0001
0100
0000
,
0010
1000
0010
1000
0100
1000
0010
0100
,
0010
1000
0100
1000
0010
0100
0001
0010
,
1000
0010
0001
0010
1000
0010
0001
0000
,
1000
0001
0100
1000
0100
0001
0100
1000
,
1000
0100
0100
0001
0100
0010
1000
0001
,
0000
0100
0001
1000
0000
0100
1000
0001
,
1000
0100
0001
0100
0010
0001
0010
1000
,
0010
0001
1000
0010
0100
1000
0100
0010
,
1000
0001
0100
0010
0001
0010
0100
0001
,
1000
0100
0010
1000
0010
0100
1000
0010
,
0100
1000
0100
0010
1000
0100
0010
1000
,
0010
0100
1000
0001
0010
1000
0001
0100
,
0010
0001
1000
0010
0001
1000
0100
0001
,
1000
0010
0100
1000
0001
0010
1000
0100
,
0010
0000
0001
0000
1000
0100
0010
0000
0001
0000
1000
0000
0010
0100
0001
0000
,
0010
0000
0100
0000
0001
0100
0010
0000
0001
0000
1000
0000
0010
0100
1000
0000
,
0100
0000
0010
0000
1000
0001
0010
0000
0100
0000
0010
0000
0001
1000
0100
0000
,
0001
0000
0100
0000
1000
0010
1000
0000
0001
0000
0100
0000
0010
0001
0010
0000
,
0100
0000
0010
0000
1000
0001
0100
0000
0010
0000
1000
0000
0001
1000
0010
0000
,
0100
0000
0001
0000
1000
0001
0010
0000
0100
0000
1000
0000
0001
1000
0010
0000
,
0100
0100
0001
0001
1000
0001
0100
0010
,
1000
0010
1000
0000
0001
0100
0001
0000
1000
0100
1000
0000
0001
1000
0001
0000
,
1000
0100
0000
0010
0100
1000
0001
0100
,
0000
0110
0000
0101
0000
1000
0010
1000
,
0001
0100
0000
0010
0100
0001
0000
0010
,
0100
1000
0100
0010
1000
0010
0100
1000
,
0001
0100
0000
0010
0001
0010
0000
0010
,
0100
0010
0000
0010
1000
0010
0000
1000
,
0001
0100
0010
0100
0001
1000
0010
0200
,
0000
1000
0000
0010
0000
0010
0000
0301
,
0001
0010
0100
1000
0100
0010
0001
1000
,
0001
1000
0010
0100
0001
0100
0010
1000
,
0100
0001
0100
1000
0010
0001
0010
1000
,
0001
0100
1000
0100
0001
0010
1000
0010
,
0001
0000
0100
0000
0010
0100
0001
0000
1000
0000
0001
0000
0010
0100
1000
0000
,
0001
0000
0100
0000
0010
1000
0001
0000
0100
0000
0001
0000
1000
0100
0010
0000
,
0001
0000
1000
0000
0001
0010
0001
0000
1000
0000
0010
0000
0100
0001
0100
0000
,
0010
0000
1000
0000
0100
0010
0001
0000
1000
0100
0010
0000
0001
1000
0100
0000
,
2000
0000
0010
0020
0000
0000
3000
0000
,
0230
0000
0001
0302
0000
2000
0003
0000
,
3200
0000
0310
0002
0000
2000
3003
0000
,
2002
0000
0000
0000
,
3003
0000
0000
0000
;

//--------------- dance-double - HellKiteChaos ----------------
#NOTES:
     dance-double:
     HellKiteChaos:
     Challenge:
     14:
     0,0,0,0,0:
00000000
00000000
00000000
00000000
,
00000000
00000000
00000000
00000000
,
00000000
00000000
00000000
00000000
,
00000000
00000000
00000000
00000000
,
00001000
00000000
00000000
00010000
00001000
00000000
00000000
00001000
00100000
00000000
00000000
00100000
00010000
00000000
00000000
00010000
,
10000000
00000000
00000000
10000000
00100000
00000000
00000000
00100000
01000000
00000000
00000000
01000000
00001000
00000000
00000000
00001000
,
00010000
00000000
00000000
00001000
00010000
00000000
00000000
00001000
00010000
00000000
00000000
00001000
00010000
00000000
00000000
00000010
,
00000100
00000000
00000000
00000010
00000100
00000000
00000000
00000001
00001000
00000000
00000000
00000001
00001000
00000000
00000001
00000000
,
00001000
00000000
00000100
00000000
00010000
00000000
00000000
00001000
00010000
00000000
00000000
00001000
00010000
00000000
00000000
00001000
,
01000000
00000000
00000000
00001000
01000000
00000000
00000000
00100000
01000000
00000000
00000000
00100000
01000000
00000000
01000000
00000000
,
00010000
00000000
00000000
10000000
01000000
00000000
00000000
00100000
00010000
00000000
00000000
10000000
00100000
00000000
00100000
00000000
,
01000000
00000000
00000000
00100000
01000000
00000000
01000000
00000000
00010000
00000000
00000000
00010000
10000000
00010000
10000000
00010000
,
01000000
01000000
00010000
01000000
00001000
00001000
00010000
00000010
,
00001000
00000000
00001000
00000000
00000100
00000000
00000010
00000000
00000001
00000000
00000000
00000100
00000010
00000000
00000010
00000000
,
00002000
00000000
00000000
00000000
00003001
00000000
00000000
00000000
00000100
00000000
00000000
00000010
00001000
00000000
00000000
00000010
,
00002000
00000000
00000000
00000000
00003010
00000000
00000000
00000000
00001000
00000010
00001000
00000000
00000001
00000100
00000001
00000000
,
00000100
00000001
00000100
00000000
00000010
00000100
00000010
00001000
,
00000000
00001010
00000000
00010010
00000000
00000010
00010000
00001000
,
00010000
00001000
00100000
00000000
00010000
00100000
00001000
00010000
,
00000000
00001000
00010000
00000000
00000000
00001000
00010000
00000000
00000000
00001000
00010000
00000000
00000000
00001000
00010000
00001000
,
00010000
00001000
01000000
00001000
01000000
00000100
00010000
00001000
,
00100000
00001000
00100000
00010000
10000000
01000000
00100000
00010000
,
10000000
00100000
00000000
00100000
01000000
00010000
00000000
00010000
,
01000000
00001000
01000000
00100000
10000000
00010000
01000000
00001000
,
00010000
00001000
00010000
00000000
00001000
00000100
00000010
00001000
,
00000001
00001000
00000001
00000000
00000010
00000100
00010000
00000010
,
00001000
00000100
00010000
00000000
00001000
00100000
00001000
00020000
,
00000000
00032000
00000000
00203000
00000000
01300000
00100000
01000000
,
10000000
00010000
10000000
00100000
00010000
00100000
10000000
00000000
,
00100000
01000000
00010000
01000000
00001000
00100000
00010000
10000000
,
01000000
01000000
00100000
00000000
00010000
00010000
01000000
00001000
,
01000000
00000000
00100000
00000000
10000000
00000000
00010000
00000000
01000000
00010000
01000000
00000000
00100000
10000000
00100000
00000000
,
01000000
00010000
01000000
00020000
00000000
00130000
00001000
00200000
,
00000000
00310000
01000000
00002000
00000000
00013000
00000010
00020000
,
00000000
00030100
00001000
00000002
00000000
00000013
00000100
00000020
,
00000000
00000130
00010000
00002000
00000000
00013000
00001000
00010000
,
00001000
01000000
00010000
00100000
00001000
00010000
00000100
00010000
,
00001000
00010000
00000010
00001000
00000100
00010000
00001000
00010000
,
00010000
00001000
01000000
00010000
00100000
01000000
00010000
10000000
,
00100000
00000000
01000000
00000000
10000000
00000000
00010000
00000000
01000000
00100000
01000000
00100000
01000000
00000000
00100000
00000000
,
10000000
00010000
01000000
00001000
00010000
00000100
00000010
00000000
,
00000001
00000010
00001000
00010000
01000000
00100000
00010000
00000000
,
10000000
01000000
00010000
00001000
00000010
00000100
00001000
00000000
,
00000001
00000010
00000100
00000001
00000100
00000010
00000001
00000001
,
00001000
00000010
00000100
00000001
00000010
00001000
00000010
00000001
,
00000100
00000010
00010000
00000100
00001000
00000010
00000100
00000010
,
00010000
00001000
01000000
00010000
00100000
01000000
00100000
00010000
,
10000000
00010000
10000000
00000000
00010000
10000000
00010000
00000000
01000000
00010000
01000000
00000000
00010000
01000000
00010000
00000000
,
10000000
01000000
11000000
00000000
01000000
10000000
00010000
00100000
,
00000000
01000000
10000000
00000000
00000000
01000000
10000000
00000000
00000000
00010000
00100000
00000000
00000000
00010000
00100000
00000000
,
00001000
00010000
00000010
00010000
00000100
00010000
00000010
00000100
,
00000010
00000010
00001000
00001000
00000001
00000001
00001001
00000000
,
00001000
00000010
00000100
00001000
00000100
00000001
00001000
00000010
,
00010000
00000010
00001000
00000010
00010000
00001000
00100000
00100000
,
01000000
10000000
00100000
00010000
00001000
00000100
00000010
00000000
,
00001000
00000000
00000001
00000000
00000010
00000000
00001000
00000000
00010000
00000000
01000000
00000000
00100000
01000000
00100000
01000000
,
00100000
01000000
00100000
00010000
01000000
00100000
10000000
00000000
,
00100000
01000000
00001000
01000000
00100000
00010000
00100000
00100000
,
10000000
00010000
01000000
00100000
10000000
01000000
00010000
00000000
,
00001000
00000000
00000010
00000000
00000001
00000000
00000010
00000000
00000100
00000000
00000010
00000000
00000001
00000010
00000001
00000010
,
00000001
00001000
00000010
00001000
00000100
00010000
00001000
00001000
,
00100000
00010000
01000000
00010000
00100000
01000000
10000000
01000000
,
11000000
10000000
00010000
01000000
01010000
00010000
10000000
00100000
,
01100000
01000000
01010000
00010000
00110000
00100000
00101000
00001000
,
00011000
00001000
01000000
00000200
00000000
00010300
00001000
00010000
,
00000010
00100000
00001000
00020000
00000000
00032000
00000000
00003000
,
00010000
00001000
00100000
00020000
00000000
02030000
00000000
03000000
,
02200000
00000000
00000000
00000000
,
03300000
00000000
00000000
00000000
;
