#TITLE:DYNAMITE RAVE (super euro version);
#SUBTITLE:;
#ARTIST:NAOKI with Y&Co.;
#TITLETRANSLIT:;
#SUBTITLETRANSLIT:;
#ARTISTTRANSLIT:;
#GENRE:;
#CREDIT:;
#MUSIC:DYNAMITE RAVE (super euro version).mp3;
#BANNER:DYNAMITE RAVE (super euro version).png;
#BACKGROUND:DYNAMITE RAVE (super euro version)-bg.png;
#CDTITLE:./CDTITLES/ParaParaPARADISE.PNG;
#SAMPLESTART:19.226;
#SAMPLELENGTH:15.000;
#SELECTABLE:YES;
#OFFSET:-0.055;
#BPMS:0.000=150.000;
#STOPS:;
#BGCHANGES:;
#FGCHANGES:;

//--------------- dance-single - HellKiteChaos ----------------
#NOTES:
     dance-single:
     HellKiteChaos:
     Challenge:
     14:
     0,0,0,0,0:
0000
0000
0000
0000
,
0000
0000
0000
0000
,
0000
0000
0000
0000
,
0000
0000
0000
0000
,
1000
0000
0001
0000
0010
0000
0100
0010
0000
0100
0010
0000
0001
0000
1000
0000
,
0010
0000
0100
0000
0010
0000
1000
0001
0000
1000
0001
0000
0010
0000
0100
0000
,
0010
0000
0001
0000
0100
0000
0010
1000
0000
0001
0100
0000
0010
0000
0100
0000
,
0020
0230
0320
0130
,
0002
0000
0000
1003
0000
0010
1000
0001
0100
0010
0100
0010
1000
0000
0001
0000
,
2000
0000
0000
3100
0000
0010
0001
1000
0100
0010
0100
0010
0001
0000
0100
0000
,
0020
0000
0000
1030
0000
0001
0100
0010
1000
0001
0100
0001
0100
0000
0010
0000
,
2000
0000
0000
3001
0000
0010
0100
0010
0200
0000
0000
0000
2300
0000
0000
0000
,
3002
0000
0000
0103
0000
0010
1000
0001
0100
0010
0100
0010
0100
0000
0010
0000
,
2000
0000
0000
3001
0000
0010
0100
1000
0001
0010
0100
0010
0100
0000
1000
0000
,
0002
0000
0000
0103
0000
0010
1000
0001
0100
0010
1000
0010
1000
0000
0001
0000
,
0010
0000
0100
0000
0010
0000
0100
1000
0002
0000
0000
0000
2003
0000
0000
0000
,
3010
0100
0010
1000
0100
0010
0001
0000
,
1000
0100
0010
0100
0010
0001
0100
0000
,
0010
1000
0001
0100
0010
1000
0010
1000
,
0001
0000
0100
0000
0001
0000
1000
0001
1000
0001
1000
0100
0010
0001
1000
0100
,
0010
0001
0000
1000
0100
0010
0000
0001
,
1000
0010
0000
0100
0010
0100
0001
1000
,
0100
0010
0001
0100
0100
0010
1000
1000
,
0001
0100
0010
1000
0100
0010
0001
1000
,
0001
0000
0000
0000
1000
0000
0000
0000
0001
0000
0000
1000
0001
0000
0100
0000
,
0010
0000
0100
0000
0110
0000
0000
0000
0010
0100
0010
0100
0001
0000
0000
0000
,
1000
0000
0100
0000
0010
0000
0001
0000
1000
0100
1000
0100
1000
0000
0000
0000
,
0001
0010
0100
0010
0001
1000
0100
0000
,
0010
0001
0100
0100
0010
1000
0001
0100
,
0010
0000
1000
0000
0001
0000
1000
0000
1001
0100
1000
0000
0001
0000
0000
0000
,
0100
0000
0010
0000
1000
0000
0001
0000
0100
0010
1000
0000
0010
0000
0010
0000
,
0100
0000
0001
0000
0100
0000
0010
0000
1000
0001
1000
0000
0100
0000
0000
0000
,
0011
0000
1100
0000
0010
0001
1000
0100
,
0011
0001
0100
0000
1010
1000
0100
0010
,
0000
0010
0100
1000
0001
0100
0010
1000
,
0001
0100
0001
0100
1000
0100
1000
0100
,
0001
0010
0100
1000
0010
0100
0001
1000
,
1001
0110
1001
0110
,
1000
0010
0100
0010
1000
0100
0010
0001
,
1000
0100
1000
0000
0001
0000
0001
0000
0100
0010
0100
0000
0010
0000
0010
0000
,
1010
0000
0101
0000
1000
0001
0100
0010
,
1000
0000
1000
0000
0001
0000
0100
0010
0000
0100
0010
0000
1000
0000
0000
0000
,
0001
0000
0100
0000
0001
0000
0010
0000
0001
0000
0100
0000
0010
0100
0000
0000
,
0000
0000
0100
0000
0001
0000
0000
1000
0000
1000
0100
0000
0100
0000
0010
0000
,
0001
0010
0001
0000
1000
0001
0000
1000
0001
0000
0100
0000
1001
0000
0000
0000
,
2000
0000
0000
3001
0000
0100
0001
1000
0010
0100
0010
0100
0001
0000
1000
0000
,
0002
0000
0000
0013
0000
0100
1000
0001
0010
0100
0010
0100
1000
0000
0010
0000
,
0200
0000
0000
0301
0000
1000
0010
0100
0001
1000
0010
1000
0010
0000
0100
0000
,
0002
0000
0000
1003
0000
0100
0010
0100
0020
0000
0000
0000
0032
0000
0000
0000
,
2003
0000
0000
3010
0000
0100
0001
1000
0010
0100
0010
0100
0010
0000
0100
0000
,
0002
0000
0000
1003
0000
0100
0010
0001
1000
0100
0010
0100
0010
0000
0001
0000
,
2000
0000
0000
3010
0000
0100
0001
1000
0010
0100
0001
0100
0001
0000
1000
0000
,
0100
0000
0010
0000
0100
0000
0010
0001
2000
0000
0000
0000
3002
0000
0000
0000
,
0203
0000
0300
0000
;

//--------------- dance-double - HellKiteChaos ----------------
#NOTES:
     dance-double:
     HellKiteChaos:
     Challenge:
     14:
     0,0,0,0,0:
00000000
00000000
00000000
00000000
,
00000000
00000000
00000000
00000000
,
00000000
00000000
00000000
00000000
,
00000000
00000000
00000000
00000000
,
00001000
00000000
00010000
00000000
00000100
00000000
00001000
00000001
00000000
00001000
00000001
00000000
00000100
00000000
00000010
00000000
,
00001000
00000000
00000100
00000000
00010000
00000000
00001000
00100000
00000000
00001000
00100000
00000000
00010000
00000000
01000000
00000000
,
00100000
00000000
10000000
00000000
00010000
00000000
01000000
00100000
00000000
01000000
00100000
00000000
10000000
00000000
00010000
00000000
,
02000000
03002000
00023000
00030200
,
00000320
00000000
00000000
00000031
00000000
00001000
00000100
00001000
00000100
00001000
00000100
00001000
00000100
00000000
00010000
00000000
,
00002000
00000000
00000000
00103000
00000000
00010000
10000000
01000000
10000000
01000000
10000000
01000000
00100000
00000000
00010000
00000000
,
02000000
00000000
00000000
03001000
00000000
00010000
00001000
00010000
00001000
00010000
00001000
00010000
00000100
00000000
00001000
00000000
,
00000020
00000000
00000000
00000130
00000000
00000001
00000100
00000001
00000200
00000000
00000000
00000000
00002300
00000000
00000000
00000000
,
00023000
00000000
00000000
00130000
00000000
01000000
00100000
01000000
00100000
01000000
00100000
01000000
00010000
00000000
10000000
00000000
,
02000000
00000000
00000000
03100000
00000000
00010000
00100000
00010000
00100000
00010000
00100000
00001000
00010000
00000000
00001000
00000000
,
00020000
00000000
00000000
00030010
00000000
00001000
00000010
00000100
00000010
00000100
00000010
00000100
00000001
00000000
00001000
00000000
,
00000200
00000000
00000000
00010300
00000100
00010000
00001000
00010000
00002000
00000000
00000000
00000000
00203000
00000000
00000000
00000000
,
01300000
10000000
00000000
01000000
10000000
00010000
00000000
01000000
,
00100000
01000000
00001000
00010000
00001000
01000000
00001000
00010000
,
00000100
00001000
00000000
00000001
00000100
00000010
00000100
00000010
,
00001000
00000000
00000010
00000000
00000100
00000000
00000010
00000100
00000010
00000100
00000001
00001000
00000010
00000100
00000001
00001000
,
00000001
00001000
00000000
00000001
00000010
00001000
00000000
00010000
,
01000000
00100000
00010000
01000000
00100000
10000000
01000000
00100000
,
00010000
01000000
00000000
00100000
00010000
00001000
00000100
00000010
,
00001000
00000001
00000010
00000100
00001000
00001000
00000001
00000001
,
00000200
00000000
00002300
00000000
02003000
00000000
03100000
00100000
,
10000000
00000000
00000000
00000000
01000000
00000000
00000000
00000000
00100000
00010000
00100000
00000000
00010000
00000000
00000000
00000000
,
01000000
00100000
00010000
00100000
10000000
00010000
01000000
00000000
,
00001000
00000000
01000000
00000000
00001000
00000000
00000000
00000000
00010000
00001000
00010000
00000000
00001000
00000000
00000000
00000000
,
00010000
00000000
00000100
00000000
00001000
00000000
00000010
00000000
00000000
00001000
00000000
00000000
00000100
00000000
00000010
00000000
,
00000001
00000000
00001000
00000000
00000010
00000000
00000000
00000000
00000010
00001000
00000010
00000000
00001000
00000000
00000000
00000000
,
00000010
00001000
00000001
00000100
00001000
01000000
00100000
00000000
,
10000000
00010000
00100000
01000000
00100000
01000000
10000000
01000000
,
00010000
00000100
00000010
00000110
,
00000010
00000001
00000100
00000010
00001000
00000001
00000100
00000010
,
00000000
00000010
00000100
00000010
00000010
00001000
00000001
00000100
,
00001000
01000000
00100000
01000000
00001000
00000100
00000010
00001000
,
00000010
00000100
00000001
00001000
00000100
00000000
00001000
00000000
,
00000100
00000000
00010100
00000000
00010000
00000100
00010000
00000000
,
00001000
00100000
00001000
00100000
01000000
00010000
00000100
00001000
,
00000001
00000100
00000001
00000100
00001000
00000100
00001000
00000100
,
00000001
00000100
00001000
00000100
00000101
00000000
00001010
00000000
,
00000001
00000000
00000100
00000000
00001000
00000000
00000000
00000100
00000000
00000010
00010000
00000000
00011000
00000000
00000000
00000000
,
00010000
00000000
01000000
00000000
10000000
00000000
00000000
01000000
00000000
10000000
01000000
00000000
00010000
00001000
00000000
00000000
,
00000000
00000000
00010000
00000000
00000100
00000000
00000000
00000010
00000000
00000010
00000100
00000000
00000010
00000000
00000000
00000000
,
00000001
00000100
00001000
00010000
00100000
10000000
01000000
00000000
,
02000000
00000000
00000000
13000000
00000000
00010000
00100000
00010000
00100000
00010000
00100000
00010000
00100000
00000000
00001000
00000000
,
00020000
00000000
00000000
00030100
00000000
00001000
00000001
00000010
00000001
00000010
00000001
00000010
00000100
00000000
00001000
00000000
,
00000020
00000000
00000000
00010030
00000000
00001000
00010000
00001000
00010000
00001000
00010000
00001000
00100000
00000000
00010000
00000000
,
02000000
00000000
00000000
03100000
00000000
10000000
00100000
10000000
00200000
00000000
00000000
00000000
00320000
00000000
00000000
00000000
,
00032000
00000000
00000000
00003100
00000000
00000010
00000100
00000010
00000100
00000010
00000100
00000010
00001000
00000000
00000001
00000000
,
00000020
00000000
00000000
00000130
00000000
00001000
00000100
00001000
00000100
00001000
00000100
00010000
00001000
00000000
00010000
00000000
,
00002000
00000000
00000000
01003000
00000000
00010000
01000000
00100000
01000000
00100000
01000000
00100000
10000000
00000000
00010000
00000000
,
00200000
00000000
00000000
00301000
00100000
00001000
00010000
00001000
00020000
00000000
00000000
00000000
00030200
00000000
00000000
00000000
,
00000310
00000000
00000000
00000000
;
