#TITLE:DO YOU REMEMBER ME;
#SUBTITLE:;
#ARTIST:JENNY;
#TITLETRANSLIT:;
#SUBTITLETRANSLIT:;
#ARTISTTRANSLIT:;
#GENRE:;
#CREDIT:;
#MUSIC:DO YOU REMEMBER ME.mp3;
#BANNER:DO YOU REMEMBER ME.png;
#BACKGROUND:DO YOU REMEMBER ME-bg.png;
#CDTITLE:;
#SAMPLESTART:0.000;
#SAMPLELENGTH:0.000;
#SELECTABLE:YES;
#OFFSET:-0.043;
#BPMS:0.000=150.000;
#STOPS:;
#DISPLAYBPM:150.000;
#BGCHANGES:;
#FGCHANGES:;

//--------------- dance-single - HellKiteChaos ----------------
#NOTES:
     dance-single:
     HellKiteChaos:
     Challenge:
     15:
     0,0,0,0,0:
0000
0000
0000
0000
,
0000
0000
0000
0000
,
0000
0000
0000
0000
,
0000
0000
0000
0000
,
0000
0000
0000
0000
,
0001
0000
0100
0000
0010
0000
1000
0001
0000
1000
0001
0000
0010
0000
0100
0000
,
1000
0001
1000
0001
1000
0000
0100
0010
0000
0100
0010
0000
0001
1000
0100
0010
,
0001
0000
1000
0000
0001
0000
0010
0100
0000
0010
0100
0000
1000
0000
0001
0000
,
0100
0001
0100
0010
0000
0100
0010
1000
0001
0100
0010
1000
0001
0010
0100
1000
,
0001
0000
0100
0000
0010
0000
1000
0001
0000
1000
0001
0000
0010
0000
0100
0000
,
1000
0001
1000
0001
1000
0000
0001
0100
0000
0010
1000
0000
0001
0000
0010
0000
,
0100
1000
0100
0010
0001
0010
0000
0100
0000
1000
0001
1000
0001
1000
0000
0001
,
0100
0010
1000
0001
1000
0100
0010
0001
1000
0001
0100
0010
1000
0100
0010
0001
,
1000
0002
0000
0103
0010
0100
0001
1000
,
0010
0200
0000
0301
1000
0001
0100
0010
,
1000
0002
0000
0013
0100
2000
0000
3001
,
0010
0000
0100
0000
1000
0000
0100
0000
0010
0000
0100
0000
1000
0001
1000
0001
,
0100
0020
0000
0130
0010
1000
0001
0010
,
0001
2000
0000
3010
0100
0001
1000
0100
,
0010
0001
0010
0000
0001
0000
0001
0000
1000
0100
1000
0000
0100
0000
0100
0000
,
0011
0000
0000
0000
1100
0000
0000
0000
0001
0010
0001
0010
0100
1000
0100
1000
,
0001
0001
1000
1000
0001
0001
0100
0010
,
1000
1000
0001
0001
0200
0000
0320
0000
,
1030
0100
0001
0100
1000
0010
0001
0010
,
1000
0000
0001
0000
0010
0000
0100
0000
1000
0000
0001
0000
0100
0010
0100
0010
,
1000
0001
1000
0010
0100
0001
0010
0001
,
0100
0010
1000
0100
1000
0010
0100
0001
,
1000
0100
1000
0100
0010
0001
0010
0001
1000
0010
1000
0010
0100
0001
1000
0010
,
0100
0000
0000
0000
0100
0000
0000
0000
0100
0010
0100
0010
0100
0010
0100
0010
,
1000
0010
1000
0010
0100
0001
0100
0001
,
1000
0001
1000
0000
0001
0100
0001
0000
1000
0010
1000
0000
0001
1000
0001
1000
,
0100
0000
0010
0000
0001
0000
1000
0000
0100
0000
0010
0100
0000
0010
0100
0000
,
1000
0000
0001
0000
0100
0000
0010
0000
1000
0000
0001
1000
0000
0001
1000
0000
,
0100
0100
0010
0100
0100
0100
1000
0001
,
0100
0000
0100
0000
0010
0000
0010
0000
1000
0000
0001
0000
0100
0001
0100
0001
,
0100
0010
1000
0001
0010
0010
0010
0100
,
1000
0001
0010
0001
1000
0010
0100
0001
,
1000
1000
0010
0010
0100
0100
0001
0002
,
1000
1000
1000
1000
1000
1000
1000
1003
,
0001
0000
0100
0000
0010
0000
1000
0000
0001
1000
0001
1000
0010
0100
0001
1000
,
0010
0000
0000
0000
0010
0000
0000
0000
0010
0100
0010
0100
0010
0100
0010
0100
,
0002
0000
0000
0000
2003
0000
0000
0000
3100
0000
0000
0100
0000
0000
0100
0000
,
0010
0002
0000
0000
0103
0000
0000
0000
0100
0000
0000
0010
0000
0000
1000
0000
,
0001
0200
0000
0000
0310
0000
0000
0000
0100
0000
0000
0010
0000
0000
1000
0000
,
0101
1010
0101
1010
,
0001
0000
0100
0000
0010
0000
1000
0001
0000
1000
0001
0000
0010
0000
0100
0000
,
1000
0001
1000
0001
1000
0000
0100
0010
0000
0100
0010
0000
0001
1000
0100
0010
,
0001
0000
1000
0000
0001
0000
0010
0100
0000
0010
0100
0000
1000
0000
0001
0000
,
0100
0001
0100
0010
0000
0100
0010
1000
0001
0100
0010
1000
0001
0010
0100
1000
,
0001
0000
0100
0000
0010
0000
1000
0001
0000
1000
0001
0000
0010
0000
0100
0000
,
1000
0001
1000
0001
1000
0000
0001
0100
0000
0010
1000
0000
0001
0000
0010
0000
,
0100
1000
0100
0010
0001
0010
0000
0100
0000
1000
0001
1000
0001
1000
0000
0001
,
0100
0010
1000
0001
0100
0010
1000
0001
0010
0100
1000
0001
0010
0100
1000
0001
;

//--------------- dance-double - HellKiteChaos ----------------
#NOTES:
     dance-double:
     HellKiteChaos:
     Challenge:
     15:
     0,0,0,0,0:
00000000
00000000
00000000
00000000
,
00000000
00000000
00000000
00000000
,
00000000
00000000
00000000
00000000
,
00000000
00000000
00000000
00000000
,
00000000
00000000
00000000
00000000
,
00010000
00000000
00001000
00000000
01000000
00000000
00100000
01000000
00000000
00100000
01000000
00000000
00100000
00000000
10000000
00000000
,
00010000
10000000
00010000
10000000
01000000
00000000
00100000
00010000
00000000
10000000
01000000
00000000
00100000
00010000
00100000
00001000
,
00010000
00000000
00001000
00000000
00010000
00000000
00000010
00001000
00000000
00000010
00001000
00000000
00000001
00000000
00000100
00000000
,
00000010
00001000
00000001
00000100
00000000
00000010
00001000
00000001
00000100
00000001
00000100
00000010
00001000
00000010
00001000
00000010
,
00001000
00000000
00000010
00000000
00010000
00000000
00001000
00100000
00000000
00001000
00100000
00000000
00010000
00000000
10000000
00000000
,
01000000
00100000
01000000
00100000
00010000
00000000
10000000
00010000
00000000
10000000
00010000
00000000
01000000
00000000
01000000
00000000
,
00001000
01000000
00001000
01000000
00001000
00010000
00000000
00001000
00000000
00010000
00000100
00010000
00000100
00010000
00000000
00000100
,
00000010
00000100
00000010
00000001
00000010
00000001
00001000
00000001
00000100
00000010
00001000
00000001
00000100
00000010
00001000
00000010
,
00001000
00000200
00000000
00000310
00000001
00001000
00000001
00000100
,
00000010
00020000
00000000
00030010
00001000
00000010
00010000
00000100
,
00020000
00001000
00032000
00100000
00203000
00010000
00320000
10000000
,
10030000
00000000
01000000
00000000
00100000
00000000
00010000
00000000
10000000
00000000
00100000
00000000
01000000
00100000
01000000
00100000
,
10000000
00020000
00000000
01030000
00001000
01000000
00010000
00100000
,
00001000
02000000
00000000
03100000
10000000
01000000
00010000
00001000
,
00000010
00000100
00000010
00000000
00000001
00000000
00001000
00000000
00000010
00000100
00000010
00000000
00001000
00000000
00000001
00000000
,
00000200
00000000
00000000
00000000
00000320
00000000
00000000
00000000
00001030
00000010
00001000
00000010
00010000
00001000
00010000
00001000
,
00100000
01000000
10000000
01000000
00100000
00010000
01000000
01000000
,
00100000
01000000
00001000
00100000
00020000
00000000
02030000
00000000
,
03001000
00010000
00000010
00000100
00001000
00010000
00000010
00000100
,
00001000
00000000
00000100
00000000
00000001
00000000
00001000
00000000
00000200
00000000
00000000
00000000
00010300
00000100
00010000
00000100
,
00010000
00001000
01000000
00100000
00010000
00001000
00000100
00000010
,
00001000
00000001
00000100
00000010
00001000
00000100
00010000
00001000
,
00010000
00001000
00010000
00001000
00010000
00001000
00100000
00001000
00100000
00010000
10000000
00010000
10000000
01000000
00100000
00010000
,
10000000
00000000
00000000
00000000
10000000
00000000
00000000
00000000
00010000
10000000
00010000
10000000
00010000
10000000
00010000
10000000
,
00010000
01000000
00100000
10000000
01000000
00010000
01000000
00100000
,
00010000
00100000
00010000
00000000
00100000
00001000
00100000
00000000
00001000
00010000
00001000
00010000
00000010
00001000
00000100
00000010
,
00000001
00000000
00001000
00000000
00000100
00000000
00000010
00000000
00000001
00000000
00001000
00000001
00000000
00001000
00000001
00000000
,
00000100
00000000
00000010
00000000
00010000
00000000
00000100
00000000
00001000
00000000
00000100
00000010
00000000
00000100
00000010
00000000
,
00000001
00000100
00001000
00000000
00010000
00100000
10000000
00000000
,
00010000
00000000
01000000
00000000
00100000
00000000
10000000
00000000
00010000
01000000
00100000
10000000
00010000
10000000
00010000
10000000
,
01000000
02000000
00000000
03100000
00010000
01000000
00001000
00010000
,
00000010
00000020
00000000
00000130
00000010
00000100
00000001
00001000
,
00000001
00001000
00000100
01000000
00010000
10000000
00010000
00100000
,
00000010
00001000
00000001
00001000
00000001
00000010
00000100
00000000
,
00010000
00000000
00001000
00000000
00010000
00000000
00001000
00000000
00100000
00001000
00100000
00001000
00010000
00000010
00010000
00000010
,
00000100
00000000
00000000
00000000
00000100
00000000
00000000
00000000
00000010
00000100
00000010
00000100
00000010
00000100
00000010
00000100
,
00001000
00000000
00000100
00000000
00001000
00000000
00000100
00000000
00000010
00000000
00000000
00001000
00000000
00000000
00000100
00000000
,
00000010
00000001
00000000
00000000
00001000
00000000
00000010
00000000
00000010
00000000
00000000
00000100
00000000
00000000
00001000
00000000
,
00010000
00001000
00000000
00000000
00010000
00000000
00010000
00000000
00001000
00000000
00000000
00100000
00000000
00000000
00010000
00000000
,
02000000
03200000
01300000
10010000
,
00010000
00000000
10000000
00000000
00010000
00000000
01000000
00100000
00000000
01000000
00100000
00000000
10000000
00000000
00010000
00000000
,
01000000
00010000
01000000
00010000
01000000
00000000
00001000
01000000
00000000
00001000
00010000
00000000
00001000
00000000
00000100
00000000
,
00000010
00000000
00000001
00000000
00000010
00000000
00001000
00000010
00000000
00001000
00000100
00000000
00000010
00000000
00000001
00000000
,
00001000
00000100
00001000
00000001
00000000
00000010
00000001
00001000
00000001
00000100
00000010
00001000
00000001
00001000
00000010
00010000
,
00001000
00000000
01000000
00000000
00010000
00000000
10000000
00100000
00000000
10000000
01000000
00000000
10000000
00000000
00010000
00000000
,
00100000
00001000
00100000
00001000
00100000
00000000
00001000
01000000
00000000
00001000
00010000
00000000
00001000
00000000
00010000
00000000
,
00000100
00000010
00000100
00000010
00000001
00000010
00000000
00000100
00000000
00000100
00001000
00000001
00001000
00000001
00000000
00001000
,
00000010
00010000
00001000
00010000
00001000
00100000
00010000
10000000
00010000
10000000
01000000
10000000
00010000
01000000
00100000
10000000
;
