#TITLE:CONGA FEELING;
#SUBTITLE:;
#ARTIST:VIVIAN;
#TITLETRANSLIT:;
#SUBTITLETRANSLIT:;
#ARTISTTRANSLIT:;
#GENRE:;
#CREDIT:;
#MUSIC:CONGA FEELING.mp3;
#BANNER:CONGA FEELING.png;
#BACKGROUND:CONGA FEELING-bg.png;
#CDTITLE:;
#SAMPLESTART:46.208;
#SAMPLELENGTH:12.000;
#SELECTABLE:YES;
#OFFSET:-0.054;
#BPMS:0.000=130.000;
#STOPS:;
#DISPLAYBPM:130.000;
#BGCHANGES:;
#FGCHANGES:;

//--------------- dance-single - HellKiteChaos ----------------
#NOTES:
     dance-single:
     HellKiteChaos:
     Challenge:
     13:
     0.587305,0.662865,0.229611,0.164008,0.431888,376,355,21,15,0,0,0.587305,0.662865,0.229611,0.164008,0.431888,376,355,21,15,0,0:
0000
0000
0000
0000
,
0000
0000
0000
0000
,
0000
0000
0000
0000
,
2002
0000
0000
3003
,
0001
0000
1000
0000
0100
0000
1000
0001
0000
1000
0100
1000
0100
1000
0100
1000
,
0001
0000
0100
0000
0001
0000
1000
0010
0000
0100
0001
0100
0001
0100
0001
0100
,
0001
0000
1000
0000
0100
0000
0010
0001
0000
1000
0001
1000
0001
1000
0001
1000
,
0001
0100
0010
1000
0001
0100
0010
0000
,
1000
0010
0000
1000
0000
0010
1000
0000
1010
0000
1000
0000
1001
0000
0000
0000
,
0001
0000
0100
0000
0000
0001
0100
0001
0000
0100
0010
0000
1000
0001
0000
0000
,
1000
0100
0000
1000
0000
0100
0000
0000
1100
0000
1000
0000
1001
0000
0001
0000
,
1000
0010
0000
0100
0010
0000
2002
3003
,
0000
0102
0000
1000
0000
0010
0000
1003
,
0100
2000
0000
0010
0000
0001
0000
3010
,
0100
0002
0000
0010
0000
1000
0000
0103
,
0010
2000
0000
0001
0000
0100
3200
0300
,
0010
0001
0010
0001
1000
0100
0020
0000
,
0031
0100
0001
0100
0010
1000
0001
0100
,
0010
1000
0100
0010
0001
0100
0010
1000
,
2002
3003
2000
3002
,
1003
0000
0100
0000
0010
0000
0001
0010
0001
0000
1000
0010
1000
0000
0001
0000
,
1000
0000
0100
0000
1000
0000
0001
0100
0001
0000
1000
0100
1000
0000
0001
0010
,
0001
0000
1000
0000
0010
0000
1000
0010
1000
0000
0001
0010
0001
0000
1000
0000
,
0010
0000
1000
0000
0001
0000
1000
0100
1000
0000
0001
0100
0002
0000
0000
0000
,
1003
0000
0001
0000
0100
0000
0001
0010
0001
0000
1000
0010
1000
0000
0001
0000
,
0010
0000
0001
0000
1000
0000
0010
1000
0010
0000
0100
0001
0100
0000
0001
1000
,
0001
0000
1000
0000
0100
0000
0010
0001
0010
0000
0100
1000
0100
0000
0010
0000
,
0001
1000
0010
0100
0001
1000
1001
0000
,
0001
0000
1000
0000
0100
0000
1000
0001
0000
1000
0000
0001
1000
0001
1000
0001
,
1000
0000
0010
0000
1000
0000
0001
0100
0000
0001
0000
0100
0001
0100
0001
0100
,
0001
0000
0010
0000
0100
0000
0010
0100
0000
0010
0000
0100
0010
0100
0010
0100
,
1000
0001
0100
0010
1000
0001
0100
0000
,
0010
0000
1000
0000
0010
0000
1000
0000
0010
1000
0001
1000
0010
0000
0000
0000
,
0100
0000
0001
0000
0100
0000
0001
0000
0100
0001
1000
0001
0100
0000
0000
0000
,
0001
0000
1000
0000
0001
0000
1000
0000
0001
1000
0100
1000
0001
0000
0000
0000
,
0100
0010
1000
0100
0010
0001
1000
0000
,
0000
2100
0000
0001
0000
0010
0000
3001
,
0100
0102
0000
1000
0000
0010
0000
1003
,
0100
2100
0000
0001
0000
0010
0000
3001
,
0100
0102
0000
1000
0000
0013
0010
0100
,
1000
0000
0001
0100
0000
0100
0000
0000
0110
0000
0100
0000
0101
0000
0001
0000
,
1000
0000
0001
0000
1000
0100
1000
0100
0000
0010
0001
0000
1000
0010
0000
0000
,
0100
0100
0000
0001
0000
1000
0001
0000
1001
0000
1000
0000
1000
0000
0100
0000
,
0010
0000
0001
0000
0000
1000
0001
1000
0000
0001
0100
0000
0010
1000
0000
0000
,
0010
0010
0000
1000
0000
0001
0000
0000
0101
0000
0001
0000
1000
0000
0100
0000
,
0010
0001
0000
1000
0000
0100
0000
0000
1100
0000
1000
0000
0001
0000
0100
0000
,
0010
1000
0000
0001
0000
0100
0000
0000
0010
1000
0000
0001
0000
0100
0000
0000
,
0010
1000
0000
0001
0100
0001
0000
1000
0010
1000
0000
0001
0100
0001
0000
1000
,
0002
0000
0003
0000
;

//--------------- dance-double - HellKiteChaos ----------------
#NOTES:
     dance-double:
     HellKiteChaos:
     Challenge:
     13:
     0,0,0,0,0:
00000000
00000000
00000000
00000000
,
00000000
00000000
00000000
00000000
,
00000000
00000000
00000000
00000000
,
00022000
00000000
00000000
00033000
,
00001000
00000000
00010000
00000000
00001000
00000000
00010000
00002000
00003000
00000010
00001000
00000010
00001000
00000010
00001000
00000010
,
00001000
00000000
00010000
00000000
00001000
00000000
00010000
00002000
00003000
00010000
00100000
00010000
00100000
00010000
00100000
00010000
,
00001000
00000000
00010000
00000000
00001000
00000000
00010000
00002000
00003000
00000010
00001000
00000010
00001000
00000010
00001000
00000010
,
00001000
00010000
00001000
00000100
00001000
00010000
00011000
00000000
,
00001000
00010000
00001000
00010000
01000000
10000000
11000000
01000000
,
00010000
00001000
00010000
00001000
00000100
00000001
00000101
00000100
,
00001000
00010000
00001000
00010000
00100000
10000000
10100000
00100000
,
00010000
00001000
00010000
01000000
00100000
00010000
20020000
30030000
,
10000000
01000000
10000000
01000000
00010000
01000000
00010000
01000000
,
10000000
00100000
00010000
00001000
00000100
00000001
00000010
00000001
,
00000100
00000001
00000100
00000001
00001000
00000010
00001000
00000010
,
00000100
00000001
00000010
00001000
00010000
01000000
00100000
00000000
,
00010000
00210000
00000000
01000000
00000000
00010000
00000000
01300000
,
10000000
00100000
00010000
00001000
00000100
00000001
00000010
00000100
,
00001000
00001200
00000000
00000010
00000000
00001300
00000100
00001000
,
00001001
00000000
00000110
00001001
,
00000001
00000000
00000100
00000000
00001000
00000000
00000100
00000000
00000001
00000000
00000100
00000001
00000100
00000000
00000001
00000010
,
00000001
00000100
00000001
00000010
00000100
00010000
00001000
01000000
,
00100000
00000000
10000000
00000000
01000000
00000000
10000000
00100000
10000000
00000000
01000000
10000000
01000000
00000000
10000000
00000000
,
00100000
10000000
01000000
00010000
00001000
00000100
00000001
00000000
,
00000010
00000000
00000001
00000000
00000100
00000000
00000010
00001000
00000010
00000000
00000100
00000001
00000100
00000000
00000010
00000000
,
00001000
00000100
00000001
00000100
00001000
00000010
00000100
00001000
,
00010000
00000000
00100000
00000000
10000000
00000000
00100000
10000000
00100000
00000000
01000000
00010000
01000000
00000000
00100000
00000000
,
10000000
01000000
00010000
01000000
10000000
00100000
01000000
00000000
,
00100000
00000000
01000000
00000000
00010000
00000000
10000000
00010000
00000000
10000000
00010000
10000000
00010000
10000000
00010000
10000000
,
01000000
00000000
00100000
00000000
00010000
00000000
00100000
00001000
00000000
00100000
00001000
00100000
00001000
00100000
00001000
00100000
,
00001000
00000000
00010000
00000000
00000010
00000000
00000100
00000001
00000000
00000100
00000001
00000100
00000001
00000100
00000001
00000100
,
00000010
00001000
00000100
00000010
00000001
00000100
00001000
00000000
,
00010000
00100000
10000000
00100000
00010000
00100000
10000000
01000000
,
00010000
00001000
00000010
00000001
00000010
00001000
00000010
00000001
,
00000100
00001000
00010000
00100000
10000000
00100000
00010000
00100000
,
10000000
01000000
00100000
00010000
01000000
00001000
00010000
00000000
,
00001000
00020000
00000000
00000010
00000000
00000100
00000000
00031000
,
00010000
00002000
00000000
00100000
00000000
01000000
00000000
00013000
,
00001000
00020000
00000000
00000100
00000000
00000010
00000000
00031000
,
00010000
00001000
00010000
01000000
00010000
00001000
00000010
00001000
,
00010000
00001000
00010000
00001000
00011000
00010000
00011000
00001000
,
01000000
00000000
00001000
00000000
01000000
00010000
01000000
00010000
00000000
10000000
00100000
00000000
10000000
00100000
00000000
00000000
,
10000000
00100000
10000000
00100000
10100000
10000000
11000000
01000000
,
00010000
00000000
00001000
00000000
00000010
00000100
00000010
00000100
00000000
00001000
00000001
00000000
00001000
00000001
00000000
00000000
,
00000100
00000001
00000000
00000010
00000000
00000010
00000001
00000000
00000100
00000000
00001000
00000000
00010000
00000000
00100000
00000000
,
10000000
00010000
00000000
10000000
00000000
10000000
01000000
00000000
00010000
00000000
00001000
00000000
00000010
00000000
00000001
00000000
,
00001000
00000001
00000000
00000100
00000000
00001000
00000000
00000000
00010000
00100000
00000000
10000000
00000000
00010000
00000000
00000000
,
10000000
01000000
00000000
00100000
00010000
00100000
00000000
00001000
00010000
00001000
00000000
00010000
00000100
00010000
00000000
00000100
,
00000020
00000000
00000030
00000000
;
