#TITLE:BUTTERFLY;
#SUBTITLE:;
#ARTIST:SMILE.dk;
#TITLETRANSLIT:;
#SUBTITLETRANSLIT:;
#ARTISTTRANSLIT:;
#GENRE:;
#CREDIT:;
#MUSIC:BUTTERFLY.mp3;
#BANNER:BUTTERFLY.png;
#BACKGROUND:BUTTERFLY-bg.png;
#CDTITLE:;
#SAMPLESTART:28.716;
#SAMPLELENGTH:16.008;
#SELECTABLE:YES;
#OFFSET:-0.245;
#BPMS:0.000=134.931;
#STOPS:;
#BGCHANGES:;
#FGCHANGES:;

//--------------- dance-single - HellKiteChaos ----------------
#NOTES:
     dance-single:
     HellKiteChaos:
     Hard:
     13:
     0,0,0,0,0:
0000
0000
0000
0000
,
0000
0000
0000
0000
,
0000
0000
0000
0000
,
0000
0000
0000
0000
,
1000
0000
0010
0000
1000
0000
0001
0100
0000
0001
0010
0000
0001
1000
0001
0000
,
0010
0000
0001
0000
0010
0000
0100
1000
0000
0001
1000
0000
0001
1000
0001
0000
,
0100
0000
0001
0000
0100
0000
0010
1000
0000
0001
1000
0000
0010
0100
0010
0000
,
1000
0000
0001
0000
0100
0000
0010
0000
1000
0001
0000
1000
0001
0000
1000
0000
,
1001
0000
0000
0001
1000
0000
0100
0000
2100
0000
0000
0000
3002
0000
0000
0000
,
0103
0000
0000
0010
1000
0000
0001
0000
0201
0000
0000
0000
0320
0000
0000
0000
,
1030
0000
0010
1000
0010
0000
0100
0000
0100
0000
0001
0100
0001
0000
1000
0000
,
1000
0000
0100
0000
0001
0000
0100
0000
1000
0000
0001
1000
0001
0000
1000
0000
,
0100
0000
0000
0010
0001
0000
1000
0000
2100
0000
0000
0000
3002
0000
0000
0000
,
0013
0000
0000
0001
0100
0000
0010
0000
2010
0000
0000
0000
3002
0000
0000
0000
,
0103
0000
0001
0100
0001
0000
1000
0000
1000
0000
0010
0100
0010
0000
1000
0000
,
0001
0100
0010
1000
0100
0000
1001
0000
,
2000
0100
3002
0100
2003
0010
3010
0100
,
0110
0100
0101
0001
2001
0000
3100
0010
,
0012
0000
0100
0103
2010
0000
0100
3100
,
0010
0001
1000
0000
0010
0000
0010
0000
0100
0000
0001
0000
1001
0000
0000
0000
,
0002
0010
2003
0010
3002
0100
0103
0010
,
0110
0010
1010
1000
1002
0000
0013
0100
,
2100
0000
0010
3010
0102
0000
0010
0013
,
0100
1000
0001
0000
0100
0000
0100
0000
0010
0000
1000
0000
1001
0000
0000
0000
,
0001
0000
1000
0000
0010
0000
0100
0001
0000
1000
0010
0000
0100
0000
0100
0000
,
0001
0000
0010
0000
0100
0000
1000
0001
0000
0010
0100
0000
1000
0000
1000
0000
,
0010
0000
0100
0000
0001
0000
0010
0100
0000
0010
0100
0000
1000
0000
0001
0000
,
1000
0000
0010
0000
0100
0000
0010
0000
1000
0001
0000
1000
0001
0000
1000
0000
,
1001
0000
0000
1000
0001
0000
0010
0000
0012
0000
0000
0000
2003
0000
0000
0000
,
3010
0000
0000
0100
0001
0000
1000
0000
1020
0000
0000
0000
0230
0000
0000
0000
,
0301
0000
0100
0001
0100
0000
0010
0000
0010
0000
1000
0010
1000
0000
0001
0000
,
0001
0000
0010
0000
1000
0000
0010
0000
0001
0000
1000
0001
1000
0000
0001
0000
,
0010
0000
0000
0100
1000
0000
0001
0000
0012
0000
0000
0000
2003
0000
0000
0000
,
3100
0000
0000
1000
0010
0000
0100
0000
0102
0000
0000
0000
2003
0000
0000
0000
,
3010
0000
1000
0010
1000
0000
0001
0000
0001
0000
0100
0010
0100
0000
0001
0000
,
1000
0010
0100
0001
0010
0100
1001
0000
,
0002
0010
2003
0010
3002
0100
0103
0010
,
0110
0010
1010
1000
1002
0000
0013
0100
,
2100
0000
0010
3010
0102
0000
0010
0013
,
0100
1000
0001
0000
0100
0000
0100
0000
0010
0000
1000
0000
1001
0000
0000
0000
,
2000
0100
3002
0100
2003
0010
3010
0100
,
0110
0100
0101
0001
2001
0000
3100
0010
,
0012
0000
0100
0103
2010
0000
0100
3100
,
0010
0001
1000
0000
0010
0000
0010
0000
0100
0000
0001
0000
1001
0000
0000
0000
,
0001
0000
0201
0000
0000
0000
0310
0100
0010
0000
0100
0000
0001
0000
0010
0000
,
0100
0000
2100
0000
0000
0000
3100
1000
0100
0000
0010
0000
0001
0000
1000
0000
,
0010
0000
2010
0000
0000
0000
3001
0100
0001
0000
0100
0000
0100
0000
0010
0000
,
1000
0100
0010
0001
0100
0000
1001
0000
,
1000
0000
1020
0000
0000
0000
0130
0010
0100
0000
0010
0000
1000
0000
0100
0000
,
0010
0000
0012
0000
0000
0000
0013
0001
0010
0000
0100
0000
1000
0000
0001
0000
,
0100
0000
0102
0000
0000
0000
1003
0001
1000
0000
0010
0000
0010
0000
0100
0000
,
0001
0010
0100
1000
0010
0000
2002
0000
,
3003
0000
0000
0000
;

//--------------- dance-single - HellKiteChaos ----------------
#NOTES:
     dance-single:
     HellKiteChaos:
     Challenge:
     16:
     0,0,0,0,0:
0000
0000
0000
0000
,
0000
0000
0000
0000
,
0000
0000
0000
0000
,
0000
0000
0000
0000
,
1000
0010
0100
0001
1000
0010
0100
0001
1000
0010
0100
0001
1000
0010
0100
0001
,
1000
0100
0010
0001
1000
0100
0010
0001
1000
0100
0010
0001
1000
0100
0010
0001
,
1000
0001
0100
0010
1000
0001
0100
0010
1000
0001
0100
0010
1000
0001
0100
0010
,
1000
0100
0010
0001
0100
0010
1000
0100
0010
0001
0100
0010
1000
0100
0010
0001
,
1000
0100
1000
0100
1000
0100
1000
0100
1000
0100
1000
0100
1000
0000
0000
0000
,
0001
0100
0001
0100
0001
0100
0001
0100
0001
0100
0001
0100
0001
0000
0000
0000
,
0100
0010
0100
0010
0100
0010
0100
0010
0100
0010
0100
0010
0100
0000
0000
0000
,
0010
1000
0001
0100
0010
1000
0001
0100
0010
1000
0001
0100
0010
1000
0001
0100
,
0010
1000
0010
1000
0001
1000
0001
1000
0010
1000
0010
1000
0001
0000
0000
0000
,
0010
0001
0010
0001
1000
0001
1000
0001
0010
0001
0010
0001
1000
0000
0000
0000
,
0100
1000
0100
1000
0001
0100
0001
0100
0010
1000
0010
1000
0100
0010
0100
0010
,
0001
0100
0010
1000
0100
0010
0001
0100
0010
1000
0100
0010
0001
0000
0000
0000
,
1000
0100
1000
0000
0001
0010
0001
0000
1000
0100
1000
0000
0001
0010
0001
0000
,
0100
0010
0100
0000
0001
1000
0001
0000
0100
0010
1000
0001
0100
0000
0000
0000
,
0010
1000
0010
1000
0001
0100
0001
0000
0010
0001
0010
0001
1000
0100
1000
0000
,
0001
1000
0001
0000
0100
0010
0100
0000
0001
0010
0100
1000
0001
0000
0000
0000
,
0001
0010
0001
0000
1000
0100
1000
0000
0001
0010
0001
0000
1000
0100
1000
0000
,
0010
0100
0010
0000
1000
0001
1000
0000
0010
0100
0001
1000
0010
0000
0000
0000
,
0100
0001
0100
0001
1000
0010
1000
0000
0100
1000
0100
1000
0001
0010
0001
0000
,
1000
0001
1000
0000
0010
0100
0010
0000
1000
0100
0010
0001
1000
0000
0000
0000
,
0001
0010
0100
1000
0001
0010
0100
1000
0001
0010
0100
1000
0001
0010
0100
1000
,
0001
0100
0010
1000
0001
0100
0010
1000
0001
0100
0010
1000
0001
0100
0010
1000
,
0001
1000
0100
0010
0001
1000
0100
0010
0001
1000
0100
0010
0001
1000
0100
0010
,
0001
0100
0010
1000
0001
0100
0010
1000
0001
0100
0010
1000
0001
0100
0010
1000
,
0001
0010
0001
0010
0001
0010
0001
0010
0001
0010
0001
0010
0001
0000
0000
0000
,
1000
0100
1000
0100
1000
0100
1000
0100
1000
0100
1000
0100
1000
0000
0000
0000
,
0100
0010
0100
0010
0100
0010
0100
0010
0100
0010
0100
0010
0100
0000
0000
0000
,
0010
0001
1000
0100
0010
0001
1000
0100
0010
0001
1000
0100
0010
0001
0100
0010
,
1000
0010
1000
0010
1000
0100
1000
0100
0010
0001
0010
0001
1000
0000
0000
0000
,
0001
0100
0001
0100
0010
1000
0010
1000
0100
0010
0100
0010
0001
0000
0000
0000
,
1000
0100
1000
0100
0010
0001
0010
0001
0100
0010
0100
0010
1000
0001
1000
0001
,
1000
0100
0010
0001
1000
0100
0010
0001
1000
0010
0100
0001
1000
0000
0000
0000
,
0001
0010
0001
0000
1000
0100
1000
0000
0001
0010
0001
0000
1000
0100
1000
0000
,
0010
0100
0010
0000
1000
0001
1000
0000
0010
0100
0001
1000
0010
0000
0000
0000
,
0100
0001
0100
0001
1000
0010
1000
0000
0100
1000
0100
1000
0001
0010
0001
0000
,
1000
0001
1000
0000
0010
0100
0010
0000
1000
0100
0010
0001
1000
0000
0000
0000
,
1000
0100
1000
0000
0001
0010
0001
0000
1000
0100
1000
0000
0001
0010
0001
0000
,
0100
0010
0100
0000
0001
1000
0001
0000
0100
0010
1000
0001
0100
0000
0000
0000
,
0010
1000
0010
1000
0001
0100
0001
0000
0010
0001
0010
0001
1000
0100
1000
0000
,
0001
1000
0001
0000
0100
0010
0100
0000
0001
0010
0100
1000
0001
0000
0000
0000
,
1000
0010
0100
0001
1000
0010
0100
0001
1000
0100
1000
0100
0010
0001
0010
0001
,
1000
0100
0010
0001
1000
0100
0010
0001
1000
0010
1000
0010
0100
0001
0100
0001
,
1000
0010
0100
0001
1000
0010
0100
0001
0010
0100
0010
0100
1000
0001
1000
0001
,
0100
0010
1000
0001
0100
0010
1000
0001
0010
0100
0010
0100
1000
0001
1000
0001
,
0100
0001
0100
0001
1000
0010
1000
0010
1000
0100
0010
0001
0100
0010
1000
0100
,
0010
0001
0010
0001
1000
0100
1000
0100
0010
0001
1000
0010
0100
0001
1000
0100
,
0010
0001
0010
0001
0100
0010
0100
0010
1000
0001
0100
0010
1000
0100
0010
0001
,
1000
0001
1000
0001
0100
0000
2002
0000
,
3003
0000
0000
0000
;

//--------------- dance-double - HellKiteChaos ----------------
#NOTES:
     dance-double:
     HellKiteChaos:
     Challenge:
     13:
     0,0,0,0,0:
00000000
00000000
00000000
00000000
,
00000000
00000000
00000000
00000000
,
00000000
00000000
00000000
00000000
,
00000000
00000000
00000000
00000000
,
00001000
00000000
00010000
00000000
00001000
00000000
00100000
00001000
00000000
00100000
00010000
00000000
10000000
00010000
10000000
00000000
,
00100000
00000000
00010000
00000000
00100000
00000000
10000000
00100000
00000000
10000000
01000000
00000000
00100000
00010000
00100000
00000000
,
01000000
00000000
00010000
00000000
01000000
00000000
10000000
01000000
00000000
10000000
00010000
00000000
00100000
00000000
00001000
00000000
,
00010000
00000000
00001000
00000000
00000100
00000000
00000010
00000000
00000100
00000010
00000000
00000100
00000010
00000000
00001000
00000000
,
00000001
00000000
00000000
00001000
00000100
00000000
00000010
00000000
00000012
00000000
00000000
00000000
00002003
00000000
00000000
00000000
,
00003100
00000000
00000000
00010000
00000100
00000000
00010000
00000000
00021000
00000000
00000000
00000000
00230000
00000000
00000000
00000000
,
10300000
00000000
00100000
10000000
00100000
00000000
01000000
00000000
01000000
00000000
00010000
01000000
00010000
00000000
10000000
00000000
,
10000000
01000000
00010000
00001000
00000010
00000001
00001000
00000000
,
00001000
00000000
00000000
00000010
00000100
00000000
00000001
00000000
00002001
00000000
00000000
00000000
00003020
00000000
00000000
00000000
,
00010030
00000000
00000000
00001000
00010000
00000000
00001000
00000000
00201000
00000000
00000000
00000000
02300000
00000000
00000000
00000000
,
13000000
00000000
00010000
01000000
00010000
00000000
10000000
00000000
10000000
00000000
00100000
01000000
00100000
00000000
10000000
00000000
,
00010000
00100000
01000000
10000000
00010000
00000000
10010000
00000000
,
20000000
00100000
30020000
00100000
02030000
00000000
03001000
00010000
,
00000100
00001000
00000010
00000100
00000201
00000000
00000310
00001000
,
00002010
00000000
00000100
00003100
00001200
00000000
00010000
00010300
,
00000100
00010000
00001000
00000000
00100000
00000000
00100000
00000000
01000000
00000000
10000000
00000000
10010000
00000000
00000000
00000000
,
20000000
00100000
30020000
01000000
20030000
01000000
31000000
00100000
,
00010000
01000000
00001000
00010000
00010020
00000000
00001030
00000000
,
00000102
00000000
00000013
00000010
00002100
00000000
00000010
00003010
,
00001000
00000010
00000100
00000000
00000001
00000000
00000001
00000000
00001000
00000000
00000100
00000000
00000110
00000000
00000000
00000000
,
00000001
00000010
00001000
00000010
00000100
00010000
00001000
01000000
,
01000000
00100000
10000000
00100000
00010000
00100000
01000000
01000000
,
00010000
00100000
01000000
00010000
00001000
00010000
00000010
00000010
,
00001000
00000000
00000100
00000000
00010000
00000000
00001000
00000000
00100000
00001000
00000000
00100000
00010000
00000000
01000000
00000000
,
00100000
00000000
00000000
10000000
00010000
00000000
00100000
00000000
00120000
00000000
00000000
00000000
20030000
00000000
00000000
00000000
,
30010000
00000000
00000000
01000000
00001000
00000000
00010000
00000000
00021000
00000000
00000000
00000000
00030020
00000000
00000000
00000000
,
00000130
00000000
00000001
00000100
00000001
00000000
00001000
00000000
00001000
00000000
00000010
00001000
00000010
00000000
00000100
00000000
,
00000100
00000000
00001000
00000000
00000100
00000000
00000001
00000000
00001000
00000000
00000001
00001000
00000001
00000000
00000010
00000000
,
00000100
00000000
00000000
00000010
00000100
00000000
00010000
00000000
00012000
00000000
00000000
00000000
00023000
00000000
00000000
00000000
,
00031000
00000000
00000000
01000000
00100000
00000000
01000000
00000000
01200000
00000000
00000000
00000000
20300000
00000000
00000000
00000000
,
30100000
00000000
10000000
00100000
10000000
00000000
00010000
00000000
00010000
00000000
00100000
00010000
00100000
00000000
01000000
00000000
,
00100000
00001000
01000000
00100000
10000000
00000000
10010000
00000000
,
00020000
00100000
20030000
00100000
30002000
00000000
01003000
00010000
,
01010000
01000000
01001000
00001000
00011000
00000000
00010000
00000000
,
00000100
00000000
00000010
00000010
00000012
00000000
00000100
00000103
,
00000010
00001000
00000001
00000000
00000100
00000000
00000100
00000000
00000010
00000000
00001000
00000000
00001001
00000000
00000000
00000000
,
00000002
00000010
00020003
00000010
00030002
00000000
00000103
00000010
,
00000110
00000010
00001010
00001000
00001002
00000000
00000013
00000100
,
00002100
00000000
00000010
00003010
00000102
00000000
00000010
00000013
,
00000100
00000001
00000100
00001000
00000010
00010000
00010010
00000000
,
00000010
00020010
00000000
00001000
00031000
00100000
00010000
00100000
,
01000000
21000000
00000000
31000000
01000000
00100000
00010000
10000000
,
00100000
20100000
00000000
30010000
00010000
01000000
01000000
00001000
,
00010000
00000100
00010000
00000010
00001000
00000000
00000101
00000000
,
00001000
00001020
00000000
00000130
00000100
00000010
00001000
00000100
,
00000010
00000012
00000000
00001003
00001000
00000100
00010000
00000000
,
00001000
00012000
00000000
00013000
00010000
00001000
00000100
00000000
,
00000010
00001000
00000100
00000010
00000001
00000000
00002002
00000000
,
00003003
00000000
00000000
00000000
;
