#TITLE:BOYS (EURO MIX);
#SUBTITLE:;
#ARTIST:SMILE.dk;
#TITLETRANSLIT:;
#SUBTITLETRANSLIT:;
#ARTISTTRANSLIT:;
#GENRE:;
#CREDIT:;
#MUSIC:BOYS (EURO MIX).mp3;
#BANNER:BOYS (EURO MIX).png;
#BACKGROUND:BOYS (EURO MIX)-bg.png;
#CDTITLE:;
#SAMPLESTART:0.000;
#SAMPLELENGTH:0.000;
#SELECTABLE:YES;
#OFFSET:-0.061;
#BPMS:0.000=155.309;
#STOPS:;
#DISPLAYBPM:155.000;
#BGCHANGES:;
#FGCHANGES:;

//--------------- dance-single - HellKiteChaos ----------------
#NOTES:
     dance-single:
     HellKiteChaos:
     Challenge:
     15:
     0,0,0,0,0:
0000
0000
0000
0000
,
0000
0000
0000
0000
,
0000
0000
0000
0000
,
0000
0000
0000
0000
,
1000
0001
0000
1000
0100
0000
1000
0001
0000
0000
0100
0000
0010
0000
0100
0000
,
0001
1000
0000
0001
0010
0000
0001
1000
0000
0000
0010
0000
0100
0000
0010
0000
,
1000
0100
0000
1000
0010
0000
1000
0100
0000
0000
0010
0000
0100
0000
0010
0000
,
0001
0100
0000
0001
0010
0000
0001
0100
0000
0001
1000
0000
1001
0000
0000
0000
,
0001
1000
0100
0010
0001
1000
0001
0010
,
0100
0000
1000
0001
1000
0000
0001
0000
0100
0000
0100
0000
0010
1000
0010
1000
,
0001
0100
0010
0100
0001
0010
0100
0010
,
0001
0000
1000
0001
1000
0000
0001
0000
0100
0001
1000
0000
0010
1000
0001
1000
,
0001
1000
0100
1000
0001
0010
0001
1000
,
0100
0000
1000
0001
1000
0000
0001
0100
0000
0001
0100
0000
0010
0000
0010
0000
,
1000
0001
0100
0000
0010
1000
0001
1001
,
0000
0100
0001
1000
0010
0000
0000
0000
,
1000
0010
1000
0010
0100
0000
0001
0100
0001
0100
0010
0000
1000
0000
0001
0000
,
1000
0001
1000
0001
0100
0000
0001
1000
0001
1000
0010
0000
1000
0000
0001
0000
,
0010
0001
0010
0001
1000
0000
0100
1000
0100
1000
0001
0000
0010
0000
0001
0000
,
1000
0100
0000
0010
0001
0000
1000
0010
0000
0100
0001
0000
1000
0001
1000
0000
,
0001
0100
0001
0100
0010
0000
1000
0100
1000
0100
0010
0000
0001
0000
1000
0000
,
0010
0100
0010
0100
0001
0000
0010
0100
0010
0100
1000
0000
0001
0000
1000
0000
,
0010
1000
0010
1000
0100
0000
0010
0001
0010
0001
0100
0000
0010
0000
0100
0000
,
0010
0000
0000
1000
0000
0000
0100
0000
0000
0000
0220
0000
0000
0000
0330
0000
,
0010
0001
1000
0001
0010
0100
1000
0001
,
1000
0001
0100
0010
1000
0001
0100
0000
,
0010
0100
0001
1000
0001
0100
0010
1000
,
0100
0000
1000
0000
0001
0000
0010
0100
1000
0000
0001
1000
0000
0001
1000
0000
,
0100
0010
0100
1000
0001
1000
0100
0010
,
0100
1000
0001
0010
0100
1000
0001
0000
,
1000
0001
0010
0001
1000
0100
0010
0100
,
1000
0000
0001
0000
0010
0000
0100
1000
0100
0000
1000
0000
0100
0000
0010
0000
,
0001
1000
0100
1000
0001
0010
0001
0000
,
1000
0010
1000
0001
0100
0010
1000
0000
,
0001
0100
1000
0100
0001
0100
0010
1000
,
0002
0000
0000
1003
,
0001
0100
0101
0001
1000
0100
1100
1000
,
0001
0000
1000
0001
1000
0000
0010
1000
0010
0000
0100
0001
0100
0001
0100
0001
,
1000
0001
1001
1000
0100
0010
0011
0001
,
1000
0000
0100
1000
0100
0000
0010
0001
0010
0000
0001
1000
0001
1000
0001
1000
,
0010
0100
0101
0001
1000
0010
1010
1000
,
0001
0000
1000
0010
1000
0000
0001
0100
0001
0000
1000
0100
0010
0000
0100
0010
,
0001
0000
0001
0000
1000
0001
1000
0000
0001
1000
0001
1000
0010
0100
0002
0000
,
0000
1000
1000
1000
1003
0000
0000
0000
,
1000
0010
1000
0010
0100
0000
0001
0100
0001
0100
0010
0000
1000
0000
0001
0000
,
1000
0001
1000
0001
0100
0000
0001
1000
0001
1000
0010
0000
1000
0000
0001
0000
,
0010
0001
0010
0001
1000
0000
0100
1000
0100
1000
0001
0000
0010
0000
0001
0000
,
1000
0100
0000
0010
0001
0000
1000
0010
0000
0100
0001
0000
1000
0001
1000
0000
,
0001
0100
0001
0100
0010
0000
1000
0100
1000
0100
0010
0000
0001
0000
1000
0000
,
0010
0100
0010
0100
0001
0000
0010
0100
0010
0100
1000
0000
0001
0000
1000
0000
,
0010
1000
0010
1000
0100
0000
0010
0001
0010
0001
0100
0000
0010
0000
1000
0000
,
0001
0000
0000
1000
0100
0000
0010
0001
1000
0000
0001
0000
1000
0000
1000
0000
,
0001
0100
0001
0100
0010
0000
1000
0010
1000
0010
0100
0000
0001
0000
1000
0000
,
0001
1000
0001
1000
0010
0000
1000
0001
1000
0001
0100
0000
0001
0000
1000
0000
,
0100
1000
0100
1000
0001
0000
0010
0001
0010
0001
1000
0000
0100
0000
1000
0000
,
0001
0010
0000
0100
1000
0000
0001
0100
0000
0010
1000
0000
0001
1000
0001
0000
,
1000
0010
1000
0010
0100
0000
0001
0010
0001
0010
0100
0000
1000
0000
0001
0000
,
0100
0010
0100
0010
1000
0000
0100
0010
0100
0010
0001
0000
1000
0000
0001
0000
,
0100
0001
0100
0001
0010
0000
0100
1000
0100
1000
0010
0000
1000
0000
0001
0000
,
1000
0100
0000
0001
0100
0000
1000
0100
0000
0000
0220
0000
0000
0000
0330
0000
,
0001
0000
1000
0000
0010
0100
0000
2002
,
0000
3003
0000
0000
;

//--------------- dance-double - HellKiteChaos ----------------
#NOTES:
     dance-double:
     HellKiteChaos:
     Challenge:
     15:
     0,0,0,0,0:
00000000
00000000
00000000
00000000
,
00000000
00000000
00000000
00000000
,
00000000
00000000
00000000
00000000
,
00000000
00000000
00000000
00000000
,
00001000
00100000
00000000
00001000
01000000
00000000
00100000
00000000
00000000
00000000
10000000
00000000
10000000
00000000
10000000
00000000
,
00010000
00100000
00000000
00010000
01000000
00000000
00100000
00000000
00000000
00000000
01000000
00000000
01000000
00000000
01000000
00000000
,
00010000
01000000
00000000
00001000
00100000
00000000
00010000
00000000
00000000
00000000
00100000
00000000
00100000
00000000
00100000
00000000
,
00001000
00010000
00000010
00000100
00000001
00000000
00001001
00000000
,
00000001
00000100
00001000
00010000
00000010
00001000
00000100
00010000
,
00001000
00000000
00100000
00001000
00100000
00000000
00010000
00000000
10000000
00000000
10000000
00000000
00100000
10000000
00100000
10000000
,
01000000
00100000
00010000
10000000
00100000
00010000
00001000
00100000
,
01000000
00000000
00100000
01000000
00100000
00000000
00010000
00000000
00010000
00000000
00100000
00000000
00001000
00010000
00001000
00010000
,
00000010
00000100
00001000
00010000
00000010
00001000
00000100
00010000
,
00001000
00000000
01000000
00001000
01000000
00000000
00010000
00000000
00010000
00000000
00100000
00000000
01000000
00100000
01000000
10000000
,
00010000
01000000
00100000
10000000
01000000
00010000
00001000
00010000
,
00000000
00001000
00010000
00000100
01000000
00000000
00011000
00000000
,
00001000
00010000
00001000
00010000
00000010
00000000
00010000
00001000
00010000
00001000
00100000
00000000
00001000
00000000
00100000
00000000
,
00001000
00010000
00001000
00010000
00000100
00000000
00010000
00001000
00010000
00001000
01000000
00000000
00100000
00000000
00010000
00000000
,
00001000
00010000
00001000
00010000
00000010
00000000
00010000
00001000
00010000
00001000
01000000
00000000
00001000
00000000
00100000
00000000
,
00010000
10000000
00000000
00010000
01000000
00000000
00010000
10000000
00000000
00010000
00100000
00000000
01000000
00000000
10000000
00000000
,
00010000
10000000
00010000
10000000
00100000
00000000
01000000
00100000
01000000
00100000
10000000
00000000
01000000
00000000
00010000
00000000
,
00001000
00010000
00001000
00010000
00000100
00000000
00001000
00000100
00001000
00000100
00000010
00000000
00000001
00000000
00001000
00000000
,
00000001
00001000
00000001
00001000
00000010
00000000
00000100
00000010
00000100
00000010
00001000
00000000
00000100
00000000
00000010
00000000
,
00000001
00000100
00000000
00000001
00001000
00000000
00000110
00000000
00000000
00000000
00001001
00000000
00000000
00000000
00000000
00000000
,
00000001
00000100
00000010
00000100
00000001
00000100
00000010
00001000
,
00000100
00010000
00001000
00010000
00000100
01000000
00001000
00000000
,
00001000
00100000
00010000
00100000
00001000
00100000
01000000
10000000
,
00010000
00000000
01000000
00000000
00100000
00000000
10000000
01000000
00200000
00000000
00000000
00320000
00000000
00000000
01030000
00000000
,
00001000
00010000
00000100
00001000
00000010
00010000
00001000
00100000
,
00010000
01000000
00000100
00010000
00001000
00100000
01000000
00000000
,
10000000
00010000
00100000
00001000
00010000
00000010
00000100
00000001
,
00000010
00000000
00000100
00000000
00000100
00000000
00001000
00000100
00020000
00000000
00000000
00032000
00000000
00000000
00103000
00000000
,
00010000
10000000
00000000
00100000
01000000
00010000
00000000
00100000
,
01000000
10000000
01000000
00100000
00001000
00010000
01000000
00000000
,
10000000
00100000
00010000
00001000
00000100
00000001
00000010
00000010
,
00000200
00000000
00000300
00011000
,
00001000
00100000
00110000
00100000
00001000
00010000
00011000
00001000
,
00000100
00000000
00000010
00000000
00001000
00000000
00000001
00000100
00000001
00000000
00001000
00000001
00001000
00000001
00001000
00000100
,
00010000
00001000
00011000
00010000
01000000
00100000
01100000
01000000
,
10000000
00000000
00010000
10000000
00010000
00000000
01000000
00010000
01000000
00000000
00100000
10000000
00100000
10000000
00010000
01000000
,
00001000
00010000
00011000
00001000
00100000
00001000
00011000
00010000
,
00000010
00000000
00001000
00000010
00001000
00000000
00000001
00000100
00000001
00000000
00001000
00000100
00001000
00000100
00010000
00001000
,
00010000
00000000
00010000
00000000
00001000
00010000
00001000
00000000
00010000
00001000
00100000
00010000
10000000
01000000
00200000
00000000
,
00000000
00010000
00010000
00010000
00310000
00000000
00000000
00000000
,
00010000
10000000
00010000
10000000
01000000
00000000
00100000
01000000
00100000
01000000
10000000
00000000
00010000
00000000
01000000
00000000
,
00001000
00010000
00001000
00010000
00000100
00000000
00010000
00001000
00010000
00001000
00100000
00000000
01000000
00000000
00010000
00000000
,
00001000
00010000
00001000
00010000
00000100
00000000
00001000
00000010
00001000
00000010
00000100
00000000
00000001
00000000
00000010
00000000
,
00000100
00001000
00000000
00000100
00000010
00000000
00000100
00000001
00000000
00000100
00000010
00000000
00000100
00000000
00001000
00000000
,
00000100
00010000
00000100
00010000
00001000
00000000
01000000
00001000
01000000
00001000
00010000
00000000
00001000
00000000
00010000
00000000
,
00001000
00100000
00001000
00100000
00010000
00000000
10000000
00010000
10000000
00010000
01000000
00000000
00100000
00000000
10000000
00000000
,
01000000
00100000
01000000
00100000
00010000
00000000
10000000
00010000
10000000
00010000
01000000
00000000
00001000
00000000
00100000
00000000
,
01000000
10000000
00000000
01000000
00100000
00000000
01000000
00010000
00000000
01000000
00100000
00000000
00010000
00000000
10000000
00000000
,
00100000
10000000
00100000
10000000
00010000
00000000
01000000
00001000
01000000
00001000
00010000
00000000
00001000
00000000
00010000
00000000
,
00000100
00010000
00000100
00010000
00000010
00000000
00001000
00000001
00001000
00000001
00000100
00000000
00000010
00000000
00001000
00000000
,
00000010
00010000
00000010
00010000
00000100
00000000
00001000
00000001
00001000
00000001
00000100
00000000
00000010
00000000
00000100
00000000
,
00000010
00000100
00000001
00001000
00000010
00000100
00000001
00000010
00000100
00001000
00000001
00000010
00000001
00000000
00001000
00000000
,
00000001
00000100
00000001
00000100
00000010
00000000
00010000
00000010
00010000
00000010
00001000
00000000
00000100
00000000
00010000
00000000
,
00001000
01000000
00001000
01000000
00010000
00000000
00100000
00010000
00100000
00010000
10000000
00000000
01000000
00000000
00100000
00000000
,
00010000
10000000
00010000
10000000
00100000
00000000
01000000
00100000
01000000
00010000
10000000
00000000
01000000
00000000
00100000
00000000
,
00010000
10000000
00000000
00010000
10000000
00000000
00100000
00000000
00000000
00000000
01100000
00000000
00000000
00000000
00000000
00000000
,
10000000
00000000
00010000
00000000
01000000
00100000
00000000
20020000
,
00000000
30030000
00000000
00000000
;
