#TITLE:5.1.1.;
#SUBTITLE:;
#ARTIST:dj nagureo;
#TITLETRANSLIT:;
#SUBTITLETRANSLIT:;
#ARTISTTRANSLIT:;
#GENRE:;
#CREDIT:;
#MUSIC:5.1.1..mp3;
#BANNER:5.1.1..png;
#BACKGROUND:5.1.1.-bg.png;
#CDTITLE:;
#SAMPLESTART:0.000;
#SAMPLELENGTH:0.000;
#SELECTABLE:YES;
#OFFSET:-0.043;
#BPMS:0.000=101.000;
#STOPS:;
#DISPLAYBPM:101.000;
#BGCHANGES:;
#FGCHANGES:;

//--------------- dance-single - HellKiteChaos ----------------
#NOTES:
     dance-single:
     HellKiteChaos:
     Challenge:
     11:
     0,0,0,0,0:
0000
0000
0000
0000
,
0000
0000
0000
0000
,
2001
0000
3002
0000
0100
0103
0200
0000
,
0310
0000
0110
0000
0100
0001
1000
0001
,
1000
0001
0101
0000
0100
0100
0101
0001
,
1001
1000
1010
0000
0010
0010
1010
1000
,
1100
0100
0100
0101
0001
0001
1001
1000
,
1100
0100
0100
0110
0010
0010
0001
0010
,
0200
1300
2000
3001
0002
0103
0200
0310
,
0020
1030
2000
3001
0002
0013
0020
0130
,
1100
1100
1000
0001
0100
0010
0110
0000
,
0101
0101
0100
0001
1000
0100
1000
0001
,
1000
0000
0100
0000
1100
0000
1000
0001
1000
0001
1000
0000
0001
0000
0101
0000
,
0101
0000
0100
0000
0100
0000
0010
1000
0010
1000
0010
0000
1000
0000
1001
0000
,
1001
0001
0001
0100
0100
0010
1000
1010
,
1010
0010
0010
1000
1000
0001
0001
0100
,
0002
0103
0200
0310
0020
1030
2000
3001
,
0002
0013
0020
0130
0200
1300
2000
3001
,
0101
0000
0101
0000
0100
0000
0010
0100
0010
0100
0010
0000
0110
0000
0100
0000
,
0101
0000
0101
0000
0001
0000
1000
0001
1000
0001
1000
0000
1001
0000
0000
0000
,
1100
1000
0001
1100
1000
0001
1100
1001
,
0101
0100
1000
0101
0100
1000
0101
1001
,
1100
0100
0001
1100
0100
0001
1100
1001
,
0101
0100
1000
0101
0100
1000
0001
1000
,
1100
0100
0100
1000
0101
0100
0100
0001
,
1010
0010
0010
1000
0011
0010
0010
0001
,
1100
1000
1000
1000
0101
0001
0001
0001
,
1001
1000
0001
1000
0010
0100
0001
1000
,
2002
0000
3003
0000
;

//--------------- dance-double - HellKiteChaos ----------------
#NOTES:
     dance-double:
     HellKiteChaos:
     Challenge:
     11:
     0,0,0,0,0:
00000000
00000000
00000000
00000000
,
00000000
00000000
00000000
00000000
,
00012000
00000000
00203000
00000000
01000000
01000000
01300000
00000000
,
00100000
00000000
01100000
00000000
01000000
00010000
00001000
00010000
,
00021000
00000000
00030200
00000000
00000310
00000010
00000110
00000100
,
00001100
00001000
00001001
00000000
00000001
00000001
00000101
00000100
,
00000110
00000010
00000010
00001010
00001000
00001000
00001001
00000001
,
00000011
00000010
00000010
00000110
00000100
00000100
00010000
00001000
,
00200000
01300000
02000000
13000000
20000000
30010000
00020000
01030000
,
02000000
03100000
00200000
00310000
00020000
00130000
00200000
10300000
,
10100000
11000000
10000000
00010000
01000000
00100000
01100000
00000000
,
01010000
10010000
10000000
00010000
00100000
00001000
00010000
00000000
,
00011000
00000000
00010000
00000000
00000100
00000000
00000010
00000100
00000010
00000100
00000010
00000000
00000100
00000000
00000110
00000000
,
00000011
00000000
00000001
00000000
00001000
00000000
00000010
00001000
00000010
00001000
00000010
00000000
00010000
00000000
00011000
00000000
,
00011000
00001000
00001000
01000000
01000000
00100000
10000000
10100000
,
10100000
00100000
00100000
10000000
10000000
00010000
00010000
01000000
,
00020000
00130000
00200000
00301000
00002000
00013000
00020000
00030100
,
00000200
00000310
00000020
00000031
00000002
00001003
00002000
00003001
,
00001001
00000000
00000101
00000000
00000100
00000000
00000010
00000100
00000010
00000100
00000010
00000000
00000110
00000000
00000100
00000000
,
00000101
00000000
00001001
00000000
00001000
00000000
00000100
00010000
00000100
00010000
00000100
00000000
00011000
00000000
00000000
00000000
,
00011000
00001000
00100000
00110000
00010000
10000000
10100000
10010000
,
01010000
00010000
01000000
01010000
01000000
00001000
01001000
00011000
,
00010100
00000100
00001000
00001100
00000100
00000010
00000110
00000011
,
00001001
00000001
00000100
00000101
00000100
00000010
00001010
00000010
,
00010010
00010000
00010000
00010000
00011000
00001000
00001000
00001000
,
00101000
00100000
00100000
00100000
01100000
01000000
01000000
01000000
,
11000000
10000000
00010000
10000000
01010000
00010000
01000000
00001000
,
00011000
00010000
00000100
00001000
00000010
00010000
00001000
00010000
,
00022000
00000000
00033000
00000000
;
