#VERSION:0.83;
#TITLE:WITCH DOCTOR;
#SUBTITLE:(GIANTS TOONS VERSION);
#ARTIST:CARTOONS;
#TITLETRANSLIT:;
#SUBTITLETRANSLIT:;
#ARTISTTRANSLIT:;
#GENRE:;
#CREDIT:;
#MUSIC:WITCH DOCTOR (GIANTS TOONS VERSION).mp3;
#BANNER:WITCH DOCTOR (GIANTS TOONS VERSION).png;
#BACKGROUND:WITCH DOCTOR (GIANTS TOONS VERSION)-bg.png;
#CDTITLE:;
#SAMPLESTART:40.000;
#SAMPLELENGTH:12.000;
#SELECTABLE:YES;
#OFFSET:-0.028;
#BPMS:0.000=150.000;
#STOPS:;
#SPEEDS:0.000=1.000=0.000=0;
#SCROLLS:0.000=1.000;
#TICKCOUNTS:0.000=4;
#TIMESIGNATURES:0.000=4=4;
#LABELS:0.000=Song Start;
#COMBOS:0.000=1;
#DISPLAYBPM:150.000;
#ORIGIN:;
#PREVIEWVID:;
#JACKET:;
#CDIMAGE:;
#DISCIMAGE:;
#BGCHANGES:;
#FGCHANGES:;

//--------------- dance-single - HellKiteChaos ----------------
#NOTEDATA:;
#STEPSTYPE:dance-single;
#DESCRIPTION:HellKiteChaos;
#DIFFICULTY:Challenge;
#METER:14;
#RADARVALUES:0,0,0,0,0;
#NOTES:
0000
0000
0000
0000
,
0000
0000
0000
0000
,
0000
0000
0000
0000
,
0000
0000
0000
0000
,
0000
0000
0000
0000
,
2001
0000
3100
0000
1002
0100
0103
0000
,
2001
0000
0000
0000
3010
0000
0000
0000
0100
0010
0100
0010
0100
0000
0001
0000
,
1002
0000
0013
0000
2001
0100
3100
0010
,
0001
0000
1000
0001
1000
0001
2000
0000
0002
0000
0000
0000
0000
0000
3003
0000
,
0001
1000
0001
0000
1000
0000
0100
0010
0000
0020
0030
0001
1000
0001
1000
0100
,
1000
0100
1000
0000
0001
0000
0100
0010
0000
0020
0030
0100
0010
1000
0010
0100
,
0001
0100
0001
0000
1000
0000
0100
0010
0000
0020
0030
0100
0010
0001
0010
0001
,
1000
0200
0300
0020
0030
0200
0300
0020
0031
0000
0000
0000
2002
0000
3003
0000
,
1000
0001
1000
0000
0001
0000
0010
0100
0000
0200
0300
1000
0001
0010
0001
1000
,
0001
1000
0001
0000
1000
0000
0010
0100
0000
0200
0300
0010
0100
0001
0100
0010
,
1000
0010
1000
0000
0001
0000
0010
0100
0000
0200
0300
0010
0100
1000
0100
1000
,
0001
0020
0030
0200
0300
0020
0030
0200
1300
0000
0000
0000
2002
0000
3003
0000
,
1000
0100
1000
0100
1000
0100
1000
0000
0001
0100
0001
0100
0001
0100
0001
0000
,
1000
0001
1000
0001
1000
0001
1000
0000
2002
0000
0000
0000
0000
0000
0000
0000
,
3003
0000
0001
0000
1000
0000
0000
1000
0100
0000
0010
0000
0001
0000
1000
0000
,
0010
0100
0010
0100
2001
0001
0001
3001
,
0001
0000
1000
0000
0001
0000
0000
0001
0100
0000
0010
0000
1000
0000
0001
0000
,
0010
0100
0010
0100
2001
0001
0001
0001
,
3001
0000
1000
0000
0001
0000
0000
0001
0100
0000
1000
0000
0100
0000
0001
0000
,
0010
0100
0010
0100
2002
0000
3003
0000
,
2001
0000
3100
0000
1002
0100
0103
0000
,
2001
0000
0000
0000
3010
0000
0000
0000
0100
0010
0100
0010
0100
0000
0001
0000
,
1002
0000
0013
0000
2001
0100
3100
0010
,
0001
0000
1000
0001
1000
0001
2000
0000
0002
0000
0000
0000
3003
0000
0000
0000
,
1002
0000
0013
0000
2001
0010
3010
0000
,
1002
0000
0000
0000
0103
0000
0000
0000
0010
0100
0010
0100
0010
0000
1000
0000
,
2001
0000
3100
0000
1002
0010
0013
0100
,
1000
0000
0001
1000
0001
1000
0001
0000
2001
0000
0000
0000
3002
0000
0000
0000
,
0013
0100
1000
0000
1000
0000
0001
0100
0000
0200
0300
0010
1000
0010
1000
0001
,
1000
0001
0010
0000
0010
0000
0100
1000
0000
2000
3000
0001
0010
0100
1000
0001
,
1000
0001
1000
0000
0001
0000
1000
0010
0000
0020
0030
0100
0001
0100
0001
0100
,
0001
2000
3000
0002
0003
2000
3000
0002
0103
0000
0000
0000
2002
0000
3003
0000
,
1000
0001
1000
0000
0001
0000
1000
0010
0000
0020
0030
0100
0001
0100
0001
1000
,
0001
1000
0100
0000
0100
0000
0010
0001
0000
0002
0003
1000
0100
0010
0001
1000
,
0001
1000
0001
0000
1000
0000
0001
0100
0000
0200
0300
0010
1000
0010
1000
0010
,
1000
0002
0003
2000
3000
0002
0003
2000
3100
0000
0000
0000
2002
0000
3003
0000
,
0001
0010
0100
0010
0001
0010
0100
0010
,
0001
0100
0010
1000
0001
1000
0000
0010
,
0100
0000
0001
0000
1000
0100
0010
0001
,
1000
0010
1000
0010
1000
0010
1000
0010
,
1000
0010
0100
0010
1000
0010
0100
0010
,
1000
0100
0010
0001
1000
0001
0000
0100
,
0110
0000
1001
0000
0001
0100
0010
1000
,
0002
0000
0000
0000
1003
0000
0000
0001
0100
0000
1000
0000
0100
0000
0001
0000
,
2001
0000
3100
0000
1002
0100
0103
0000
,
2001
0000
0000
0000
3010
0000
0000
0000
0100
0010
0100
0010
0100
0000
0001
0000
,
1002
0000
0013
0000
2001
0100
3100
0010
,
0001
0000
1000
0001
1000
0001
2000
0000
0002
0000
0000
0000
3003
0000
0000
0000
,
1002
0000
0013
0000
2001
0010
3010
0000
,
1002
0000
0000
0000
0103
0000
0000
0000
0010
0100
0010
0100
0010
0000
1000
0000
,
2001
0000
3100
0000
1002
0010
0013
0100
,
1000
0000
0001
1000
0001
1000
0002
0000
2000
0000
0000
0000
0000
0000
0000
0000
,
3003
0000
0000
0000
;

//--------------- dance-double - HellKiteChaos ----------------
#NOTEDATA:;
#STEPSTYPE:dance-double;
#DESCRIPTION:HellKiteChaos;
#DIFFICULTY:Challenge;
#METER:14;
#RADARVALUES:0,0,0,0,0;
#NOTES:
00000000
00000000
00000000
00000000
,
00000000
00000000
00000000
00000000
,
00000000
00000000
00000000
00000000
,
00000000
00000000
00000000
00000000
,
00000000
00000000
00000000
00000000
,
00012000
00000000
00003100
00000000
00021000
01000000
01030000
00000000
,
02000000
00000000
00000000
00000000
03100000
00000000
00000000
00000000
00001000
00010000
00001000
00010000
00001000
00000000
00010000
00000000
,
00021000
00000000
01030000
00000000
00012000
00000100
00003100
00000010
,
00000100
00000000
00000001
00001000
00000001
00001000
00000001
00000000
00002000
00000000
00000000
00000000
00000000
00000000
00003000
00000000
,
00000010
00001000
00000010
00000000
00010000
00000000
00001000
00010000
00000000
00010000
00000000
00001000
00010000
00000000
00000100
00000000
,
00010000
00001000
00010000
00000000
00001000
00000000
00100000
00010000
00000000
00010000
00000000
10000000
01000000
00000000
00100000
00000000
,
01000000
00100000
01000000
00000000
00100000
00000000
00010000
10000000
00000000
10000000
00000000
00010000
01000000
00000000
00100000
00000000
,
10000000
01000000
00000000
00100000
00000000
00010000
00000000
00100000
00001000
00000000
00000000
00000000
00011000
00000000
00000000
00000000
,
00010000
00000100
00010000
00000000
00001000
00000000
00010000
00000010
00000000
00000010
00000000
00000100
00000001
00000000
00000100
00000000
,
00000010
00001000
00000010
00000000
00000100
00000000
00000001
00000010
00000000
00000001
00000000
00000100
00000010
00000000
00001000
00000000
,
00000010
00010000
00000010
00000000
00001000
00000000
00000100
00010000
00000000
00000100
00000000
00001000
00000010
00000000
00010000
00000000
,
00001000
00010000
00000000
00001000
00000000
00010000
00000000
00001000
00010000
00000000
00000000
00000000
00011000
00000000
00000000
00000000
,
00001000
01000000
00001000
01000000
00001000
01000000
00001000
00000000
00100000
00010000
00100000
00010000
00100000
00010000
00100000
00000000
,
01000000
10000000
01000000
10000000
01000000
10000000
01000000
00000000
20020000
00000000
00000000
00000000
00000000
00000000
30030000
00000000
,
00000000
10000000
00010000
01000000
00010000
00100000
00010000
01000000
,
00001000
00010000
00001000
00100000
02000000
10000000
10000000
10000000
,
13000000
01000000
00010000
00001000
00010000
01000000
00010000
00001000
,
00000010
00001000
00000010
00000001
00002000
00000010
00000010
00000010
,
00003010
00000100
00000001
00000010
00000001
00000100
00001000
00000100
,
00000001
00000010
00000100
00001000
00002002
00000000
00000000
00003003
,
00000001
00000000
00000100
00000000
00000010
00000000
00001000
00000000
00000100
00000000
00000010
00000001
00000000
00000010
00000001
00000000
,
00001000
00000000
00000100
00000000
00000010
00000000
00000100
00000000
00010000
00001000
00010000
00001000
00010000
00000000
00001000
00000000
,
01000000
00000000
00100000
00000000
10000000
00000000
00100000
00000000
01000000
00000000
00010000
01000000
00000000
00010000
01000000
00000000
,
00100000
10000000
01000000
00100000
20010000
00000000
31000000
00000000
,
00120000
00000000
02030000
00000000
03001000
00010000
00020000
00001000
,
00032000
00000000
00000000
00000000
00003020
00000000
00000000
00000000
00000031
00000010
00000001
00000010
00000001
00000000
00001000
00000000
,
00000010
00000000
00000100
00000000
00000001
00000000
00000100
00000000
00000010
00000000
00001000
00000100
00000000
00001000
00000100
00000000
,
00010000
00001000
00100000
00001000
00020000
00000000
00032000
00000000
,
00013000
00000100
00010000
00000000
00001000
00000000
01000000
00010000
00000000
00010000
00000000
10000000
00100000
00000000
01000000
00000000
,
00010000
00100000
00010000
00000000
01000000
00000000
00001000
00010000
00000000
00001000
00000000
00010000
00000010
00010000
00000010
00010000
,
00000010
00001000
00000010
00000000
00001000
00000000
00000001
00000100
00000000
00000001
00000000
00000010
00000001
00000000
00000100
00000000
,
00000010
00001000
00000000
00000100
00000000
00001000
00000000
00000010
00010000
00000000
00000000
00000000
00011000
00000000
00000000
00000000
,
00001000
00100000
00001000
00000000
00010000
00000000
00000010
00001000
00000000
00001000
00000000
00000001
00000100
00000000
00000010
00000000
,
00001000
00000100
00001000
00000000
00000010
00000000
00010000
00001000
00000000
00010000
00000000
00001000
01000000
00001000
01000000
00001000
,
01000000
00010000
01000000
00000000
00010000
00000000
10000000
00100000
00000000
10000000
00000000
01000000
10000000
00000000
00100000
00000000
,
01000000
00010000
00000000
00100000
00000000
00010000
00000000
01000000
00002000
00000000
00000000
00000000
00013000
00000000
00000000
00000000
,
00010000
00000100
00010000
00000010
00010000
00000100
00010000
00000010
,
00000100
00000001
00000010
00000001
00000100
00000010
00000000
00000010
,
00000100
00000001
00000100
00000010
00000100
00000001
00000100
00000010
,
00010000
00001000
00010000
00001000
00010000
00001000
00010000
00001000
,
00010000
01000000
00100000
00010000
01000000
00100000
00010000
00001000
,
00000100
00000010
00001000
00000001
00001000
00000010
00000100
00000001
,
00000011
00000000
00000101
00000000
00000010
00001000
00000100
00000010
,
00000011
00000110
00001100
00010100
,
00012000
00000000
00003100
00000000
00021000
01000000
01030000
00000000
,
02000000
00000000
00000000
00000000
03100000
00000000
00000000
00000000
00001000
00010000
00001000
00010000
00001000
00000000
00010000
00000000
,
00021000
00000000
01030000
00000000
00012000
00000100
00003100
00000010
,
00000100
00000000
00000001
00001000
00000001
00001000
00000001
00000000
00002000
00000000
00000000
00000000
00000000
00000000
00003000
00000000
,
00002010
00000000
00003100
00000000
00000012
00001000
00001003
00000100
,
00020000
00000000
00000000
00000000
00032000
00000000
00000000
00000000
00103000
00010000
00100000
00010000
00100000
00000000
01000000
00000000
,
12000000
00000000
03100000
00000000
00120000
10000000
10030000
00100000
,
01000000
00000000
00001000
00010000
00001000
00010000
00001000
00000000
00022000
00000000
00000000
00000000
00000000
00000000
00000000
00000000
,
00033000
00000000
00000000
00000000
;
