#TITLE:UPSIDE DOWN;
#SUBTITLE:;
#ARTIST:COO COO;
#TITLETRANSLIT:;
#SUBTITLETRANSLIT:;
#ARTISTTRANSLIT:;
#GENRE:;
#CREDIT:;
#MUSIC:UPSIDE DOWN.mp3;
#BANNER:UPSIDE DOWN.png;
#BACKGROUND:UPSIDE DOWN-bg.png;
#CDTITLE:;
#SAMPLESTART:42.366;
#SAMPLELENGTH:9.433;
#SELECTABLE:YES;
#OFFSET:-0.038;
#BPMS:0.000=124.030;
#STOPS:;
#DISPLAYBPM:124.000;
#BGCHANGES:;
#FGCHANGES:;

//--------------- dance-single - HellKiteChaos ----------------
#NOTES:
     dance-single:
     HellKiteChaos:
     Challenge:
     12:
     0,0,0,0,0:
0000
0000
0000
0000
,
0000
0000
0000
0000
,
0001
0000
0001
0000
0100
0000
0100
0000
0020
0000
0000
1000
0000
1030
0000
1000
,
0010
0000
0010
0000
0100
0000
0100
0000
0002
0000
0000
1003
0000
0100
1000
0100
,
1000
0000
1000
0000
0001
0000
0001
0000
0200
0000
0000
0010
0000
0310
0000
0010
,
1000
0010
1000
0000
0001
0000
0100
0000
0010
0000
0010
0000
0100
0001
0100
0001
,
2000
0000
3100
0000
0001
0100
1000
0000
,
0002
0000
0103
0000
1000
0100
0001
0000
,
1000
0010
0100
0010
2000
0000
3001
0000
,
0100
0010
0100
0010
1001
0000
1001
0000
,
0002
0000
0013
0000
1000
0010
0001
0000
,
2000
0000
3010
0000
0001
0010
1000
0000
,
0001
0100
0010
0100
0002
0000
1003
0000
,
0010
0000
0100
0000
0010
0000
0100
0000
1001
0000
1000
0000
0001
1000
0001
1000
,
0001
0100
0010
0100
0001
1000
1001
0000
,
1000
0100
0010
0100
0010
0001
1001
0000
,
1000
0010
0001
0010
1000
0100
0010
0100
,
1000
0001
0100
1000
0100
0001
0010
0100
,
1000
0010
1000
0010
0100
0010
0100
0010
,
0100
0001
0100
0001
1000
0001
1000
0001
,
1000
0100
0010
0100
1000
0001
0010
0100
,
1000
0000
0000
0000
0001
0000
1000
0000
0001
0000
1000
0000
0001
1000
0001
1000
,
0001
0010
0010
0010
0001
1000
1000
0001
,
0001
0001
0001
0100
0010
1000
1100
0000
,
0100
0010
0100
1000
0001
0100
0010
1000
,
0001
0000
0101
0000
0010
0010
0010
0010
,
1000
0100
0001
0100
1000
0100
1000
0020
,
0100
0130
0001
0100
0010
1000
1001
0000
,
0001
0000
0010
0001
0010
0000
0100
0000
0010
0000
0001
1000
0001
0000
0100
0000
,
0010
0000
0010
0000
1000
0000
0000
0000
0001
0000
0001
0000
0010
0100
0010
0100
,
0010
0100
1000
0100
0010
0100
1000
0100
,
0010
0000
0001
0000
1000
0000
1000
0000
0001
0000
0001
0000
1000
0001
1000
0001
,
2000
0000
3000
0002
0000
0000
0023
0000
,
0031
0000
0001
0000
0100
0000
0001
0000
1000
0001
1000
0001
1000
0001
1000
0001
,
1000
0000
1000
0000
0010
0000
0010
0000
0200
0000
0000
0001
0000
0301
0000
0001
,
0100
0000
0100
0000
0010
0000
0010
0000
2000
0000
0000
3001
0000
0010
0001
0010
,
0001
0000
0001
0000
1000
0000
1000
0000
0020
0000
0000
0100
0000
0130
0000
0100
,
0001
0100
0001
0000
1000
0000
0010
0000
0200
0000
0000
0000
0301
0000
1000
0000
,
0001
0000
0001
0000
0010
0000
0010
0000
0200
0000
0000
1000
0000
1300
0000
1000
,
0100
0000
0100
0000
0010
0000
0010
0000
0002
0000
0000
1003
0000
0010
1000
0010
,
1000
0000
1000
0000
0001
0000
0001
0000
0020
0000
0000
0100
0000
0130
0000
0100
,
1000
0100
1000
0000
0001
0000
0010
0000
0100
1000
0100
0000
0010
0001
0020
0000
,
0000
0030
0000
0000
;

//--------------- dance-double - HellKiteChaos ----------------
#NOTES:
     dance-double:
     HellKiteChaos:
     Challenge:
     12:
     0,0,0,0,0:
00000000
00000000
00000000
00000000
,
00000000
00000000
00000000
00000000
,
00010000
00000000
00001000
00000000
00010000
00000000
00000100
00000000
00000020
00000000
00000000
00000031
00000000
00000001
00000000
00000001
,
00000100
00000000
00000010
00000000
00001000
00000000
00000001
00000000
00000200
00000000
00000000
00000310
00000000
00001000
00000010
00001000
,
00000100
00000000
00010000
00000000
00000010
00000000
00010000
00000000
00002000
00000000
00000000
00103000
00000000
00100000
00000000
00100000
,
00010000
10000000
00010000
00000000
01000000
00000000
00100000
00000000
10000000
00000000
01000000
00000000
00100000
00010000
00100000
00010000
,
20000000
00000000
31000000
00000000
00100000
00001000
00020000
00000000
,
00030010
00000000
00002000
00000000
00003001
00000100
00000010
00001000
,
00000100
00010000
00000100
00010000
00001000
00001000
00002000
00000000
,
00103000
00010000
00100000
00010000
01000000
01000000
00100000
00100000
,
20000000
00000000
30010000
00000000
00100000
00010000
01000000
00000000
,
00020000
00000000
00130000
00000000
01000000
00010000
00001000
00000000
,
00000010
00000100
00000010
00000100
00000010
00000001
00001000
00000000
,
00000010
00000000
00000100
00000000
00000001
00000000
00000010
00000000
00000100
00000000
00001000
00000000
00000001
00000100
00000001
00000100
,
00000001
00001000
00000010
00000100
00000001
00001000
00000010
00000100
,
00000001
00000010
00000100
00010000
00000100
00010000
00001000
00100000
,
00020000
00000000
01030000
00000000
00100000
10000000
01000000
00000000
,
20000000
00000000
30100000
00000000
01000000
00001000
00010000
00001000
,
00010000
00000100
00001000
00000100
00000010
00000100
00000010
00000001
,
00001000
00000001
00001000
00000010
00000100
00000001
00001000
00000000
,
00000001
00000100
00001000
00000000
00010000
01000000
10000000
00000000
,
00100000
00000000
10000000
00000000
01000000
00000000
10000000
00000000
00100000
00000000
00100000
00000000
00100000
01000000
00100000
01000000
,
00010000
10000000
10000000
10000000
01000000
00100000
00100000
00010000
,
00010000
00010000
00010000
01000000
00001000
00010000
00011000
00000000
,
00010000
00000010
00001000
00000100
00010000
00000010
00001000
00000100
,
00010000
00000000
00010100
00000000
00000100
00000100
00000100
00000100
,
00000010
00000001
00000100
00000001
00000010
00001000
00000010
00000002
,
00000100
00000103
00000010
00010000
00001000
00100000
01000000
00000000
,
00100000
00000000
00010000
10000000
00010000
00000000
01000000
00000000
00100000
00000000
10000000
00010000
10000000
00000000
01000000
00000000
,
00100000
00000000
00100000
00000000
00001000
00000000
00001000
00000000
00010000
00000000
00010000
00000000
00001000
00010000
00001000
00010000
,
00000100
00000010
00000001
00000010
00000100
00000010
00000001
00000010
,
00000100
00000000
00001000
00000000
00000001
00000000
00000001
00000000
00001000
00000000
00001000
00000000
00000001
00001000
00000001
00001000
,
00000002
00000000
00000003
00002000
00000000
00000000
00003020
00000000
,
00010030
00000000
00010000
00000000
00000010
00000000
00000100
00000000
00000010
00000100
00000010
00000100
00000010
00000100
00000010
00000100
,
00000001
00000000
00000100
00000000
00000001
00000000
00000010
00000000
00000200
00000000
00000000
00001300
00000000
00001000
00000000
00001000
,
00000100
00000000
00010000
00000000
00000100
00000000
00010000
00000000
00002000
00000000
00000000
00103000
00000000
00010000
00100000
00010000
,
10000000
00000000
10000000
00000000
00010000
00000000
00010000
00000000
02000000
00000000
00000000
03100000
00000000
00100000
00000000
00100000
,
01000000
00010000
01000000
00000000
00010000
00000000
10000000
00000000
00010000
00100000
00010000
00000000
10000000
01000000
10000000
00000000
,
00010000
00000000
00010000
00000000
00100000
00000000
00100000
00000000
00002000
00000000
00000000
00013000
00000000
00010000
00000000
00010000
,
00000010
00000000
00000010
00000000
00001000
00000000
00001000
00000000
00000002
00000000
00000000
00000013
00000000
00000100
00000010
00000100
,
00001000
00000000
00001000
00000000
00000100
00000000
00000100
00000000
00020000
00000000
00000000
00031000
00000000
00001000
00000000
00001000
,
00010000
00001000
00100000
00000000
00001000
00000000
00010000
00000000
00000100
00010000
00000100
00000000
00010000
00001000
00020000
00000000
,
00000000
00030000
00000000
00000000
;
