#VERSION:0.83;
#TITLE:The legend of MAX;
#SUBTITLE:;
#ARTIST:;
#TITLETRANSLIT:;
#SUBTITLETRANSLIT:;
#ARTISTTRANSLIT:ZZ;
#GENRE:;
#CREDIT:;
#MUSIC:The legend of MAX.mp3;
#BANNER:The legend of MAX.png;
#BACKGROUND:The legend of MAX-bg.png;
#CDTITLE:;
#SAMPLESTART:11.740;
#SAMPLELENGTH:12.000;
#SELECTABLE:YES;
#OFFSET:-0.268;
#BPMS:0.000=333.000
,322.000=666.000
,328.000=333.000
,329.000=166.500
,330.000=81.250
,331.000=83.250
,338.750=89.250
,339.000=333.000
;
#STOPS:330.500=0.700;
#SPEEDS:0.000=1.000=0.000=0;
#SCROLLS:0.000=1.000;
#TICKCOUNTS:0.000=4;
#TIMESIGNATURES:0.000=4=4;
#LABELS:0.000=Song Start;
#COMBOS:0.000=1;
#DISPLAYBPM:*;
#ORIGIN:;
#PREVIEWVID:;
#JACKET:;
#CDIMAGE:;
#DISCIMAGE:The legend of MAX-char.png;
#BGCHANGES:;
#FGCHANGES:;

//--------------- dance-single - HellKiteChaos ----------------
#NOTEDATA:;
#STEPSTYPE:dance-single;
#DESCRIPTION:HellKiteChaos;
#DIFFICULTY:Challenge;
#METER:17;
#RADARVALUES:0,0,0,0,0;
#NOTES:
0000
0000
0000
0000
,
0000
0000
0000
0000
,
0000
0000
0000
0000
,
0000
0000
0000
0000
,
0000
0000
0000
0000
,
0000
0000
0000
0000
,
0000
0000
0000
0000
,
0000
0000
0000
0000
,
1000
0100
1000
0010
,
1000
0100
1000
0010
,
0100
0001
0010
0001
,
0100
0001
0010
0001
,
0100
0010
1000
0001
,
0100
0010
2002
3003
,
0010
1000
0010
1000
,
0001
0000
0100
0000
0001
0100
0001
0100
,
0010
0000
1000
0000
0010
1000
0100
0000
,
0010
0000
0001
0000
0010
0001
0100
0000
,
0010
0000
1000
0000
0001
0100
0010
1000
,
0100
0000
1000
0001
0000
1000
0001
0000
,
1000
0000
0100
0000
0010
0001
0100
0000
,
0001
0000
0100
0000
0010
1000
0100
0000
,
0010
0000
0001
0000
1000
0100
0010
0001
,
0100
0000
0001
1000
0000
0001
1000
0000
,
0100
0000
1000
0000
0001
0100
0010
0000
,
1000
0000
0001
0000
1000
0100
0010
0000
,
0001
0000
1000
0000
0010
0100
0001
1000
,
0001
0000
1000
0100
0000
0010
0001
0000
,
1000
0000
0001
0000
0100
0010
1000
0000
,
0001
0000
1000
0000
0100
0010
0001
1000
,
0001
0100
0010
1000
0100
0010
0001
1000
,
0001
0000
0000
1001
0000
0000
1000
0000
,
0001
0000
1000
0100
1000
0100
0010
0000
,
0001
0000
1000
0010
1000
0010
0100
0000
,
0001
0000
1000
0100
1000
0100
0010
0000
,
0001
1000
0000
0001
1000
0000
0001
0000
,
1000
0000
0001
0100
0001
0100
0010
0000
,
1000
0000
0001
0010
0001
0010
0100
0000
,
1000
0000
0001
0100
0001
0100
0010
0000
,
1000
0001
0000
1000
0001
0000
0010
0000
,
0100
0000
1000
0100
0010
0001
1000
0000
,
0001
0000
1000
0010
0100
0001
1000
0000
,
0001
0000
1000
0100
0010
0001
0100
0010
,
1000
0000
0001
1000
0000
0001
1000
0000
,
0100
0000
0010
0001
0010
0000
0110
0000
,
1100
0000
1000
0001
1000
0000
0101
0000
,
0010
1000
0010
0000
0100
0001
0100
0000
,
0010
1000
0010
0000
1000
0001
1000
0001
,
0010
0100
1100
0000
,
1000
0110
0000
0011
,
0000
0001
0100
0001
,
1001
0000
1100
0000
,
0010
0100
0101
0000
,
0001
0110
0000
1010
,
0000
1000
0100
1000
,
1001
0000
0101
0000
,
0001
0000
1000
0010
1000
0000
0001
0100
,
0001
0000
1000
0010
1000
0000
0001
0100
,
0001
0000
1000
0100
0010
0000
0001
0000
,
1000
0010
1000
0010
0100
0001
0100
0001
,
1000
0000
0001
0010
0001
0000
1000
0100
,
1000
0000
0001
0010
0001
0000
1000
0100
,
1000
0000
0001
0100
0010
0000
1000
0010
,
1000
0001
1000
0100
0010
0001
0100
0010
,
1000
0000
0001
0010
0001
0000
0001
1000
,
0001
0000
0001
0100
0001
0000
0001
1000
,
0001
0000
0001
0010
0100
0000
1000
0000
,
0001
0010
0001
0010
0100
1000
0100
1000
,
0001
0000
1000
0010
1000
0000
1000
0001
,
1000
0000
1000
0100
1000
0000
1000
0001
,
1000
0000
1000
0010
0100
0000
0001
0000
,
0010
0100
1000
0010
0100
0001
0010
0100
,
1000
0001
1000
0010
0100
0000
0001
0000
,
1000
0000
0001
0010
0100
0000
1000
0000
,
0001
0000
0100
0010
1000
0000
0001
0100
,
0010
1000
0100
0010
,
0001
0100
0001
0100
0001
0000
1000
0000
,
0010
1000
0010
1000
0010
0000
1000
0000
,
0001
0100
0001
0000
1000
0010
1000
0000
,
0001
0100
0010
1000
0100
0010
0001
1000
,
2002
0000
0000
0000
,
0000
0000
0000
0000
,
0000
0000
0000
0000
0000
0000
0000
0000
0000
0000
0000
0000
0000
0000
0000
0000
3003
0000
0000
0000
0000
0000
0000
0000
0100
0000
0000
1000
0000
0000
0010
0000
,
1000
0000
0001
0000
1000
0000
0001
0000
1001
0000
0000
0000
0001
0000
0100
0000
0100
0000
0000
0001
0000
0000
0010
0000
0010
0000
0000
0001
0000
0000
0100
0000
,
0001
0000
1000
0000
0001
0000
1000
0000
1001
0000
0000
0000
1000
0000
0010
0000
0010
0000
0000
1000
0000
0000
0100
0000
0010
0000
0000
0000
0000
0000
0000
0000
,
0001
0010
0001
1000
,
0100
0000
1000
0001
0100
0000
0010
0000
,
1000
0010
1000
0001
,
0100
0000
0001
1000
0100
0000
0010
0000
,
0001
0010
0000
0010
0100
0000
1000
0000
,
1000
0010
0000
0010
0100
0000
0001
0000
,
1000
0001
0000
0001
1000
0000
1000
0010
,
0100
0001
0010
0100
1000
0010
0100
0000
,
0001
0100
0001
0000
1000
0010
1000
0000
,
0001
0100
0001
0000
1000
0100
1000
0000
,
0010
1000
0010
0000
1000
0100
1000
0000
,
0001
0010
0100
0010
0100
1000
0001
0000
,
1000
0100
1000
0000
0001
0010
0001
0000
,
1000
0100
1000
0000
0010
1000
0010
0000
,
0100
0001
0100
0000
0010
1000
0010
0100
,
0010
0100
0001
1000
0001
0000
1000
0100
,
1000
0001
1000
0010
1000
0000
0001
0100
,
0001
1000
0001
0010
0001
0000
0010
0001
,
1000
0001
0010
0100
1000
0000
0100
1000
,
0001
1000
0010
0100
0001
0000
1000
0100
,
0010
0100
1000
0001
0100
0010
0100
0001
,
0010
0100
1000
0010
0100
0001
0010
0100
,
1000
0010
0100
0001
0010
0100
1000
0010
,
0100
0001
0010
0100
1000
0001
1001
0000
,
0000
1010
0000
0000
1001
0000
0101
0000
,
0000
0010
1000
0000
1010
0000
1001
0000
,
0000
0100
0001
0000
0101
0000
1001
0000
,
0000
0010
0001
0000
0011
0000
1001
0000
,
0000
0100
1000
0000
1100
0000
1001
0000
,
0000
0010
1000
0000
1010
0000
0010
0100
,
0000
0001
0100
0000
1001
0000
0010
0001
,
0000
0001
0100
0000
0110
0000
2002
0000
,
0000
0000
0000
0000
,
0000
0000
3003
0000
;

//--------------- dance-double - HellKiteChaos ----------------
#NOTEDATA:;
#STEPSTYPE:dance-double;
#DESCRIPTION:HellKiteChaos;
#DIFFICULTY:Challenge;
#METER:14;
#RADARVALUES:0,0,0,0,0;
#NOTES:
00000000
00000000
00000000
00000000
,
00000000
00000000
00000000
00000000
,
00000000
00000000
00000000
00000000
,
00000000
00000000
00000000
00000000
,
00000000
00000000
00000000
00000000
,
00000000
00000000
00000000
00000000
,
00000000
00000000
00000000
00000000
,
00000000
00000000
00000000
00000000
,
00001000
00100000
00001000
00100000
,
00010000
01000000
00010000
01000000
,
00001000
00010000
00001000
00010000
,
00000010
00001000
00000010
00001000
,
00000100
00000010
00000100
00000010
,
00000001
00000000
00001000
00000000
00000100
00000010
00000100
00000000
,
00000010
00000000
00000000
00000001
00001000
00000000
00000100
00000000
,
00000220
00000000
00000000
00000330
,
00000001
00000000
00000010
00000000
00000100
00001000
00000000
00000000
,
00000001
00000000
00000010
00000000
00000100
00001000
00000000
00000000
,
00000001
00000000
00000100
00000000
00000010
00001000
00000010
00000000
,
00001010
00000000
00000000
00010010
00000000
00000000
00011000
00000000
,
00001000
00000000
01000000
00000000
00100000
10000000
00000000
00000000
,
00001000
00000000
01000000
00000000
00100000
10000000
00000000
00000000
,
00001000
00000000
01000000
00000000
00100000
10000000
00100000
00000000
,
10100000
00000000
00000000
10010000
00000000
00000000
01010000
00000000
,
01000000
00000000
00100000
00000000
01000000
00010000
01000000
00000000
,
00100000
00000000
10000000
00000000
00100000
10000000
00100000
00000000
,
10000000
00000000
00010000
00000000
01000000
00010000
01000000
00000000
,
01010000
00000000
00000000
01001000
00000000
00000000
00011000
00000000
,
00010000
00000000
00000100
00000000
00001000
00000100
00001000
00000000
,
00000001
00000000
00001000
00000000
00000010
00001000
00000010
00000000
,
00000100
00000000
00000001
00000000
00001000
00000000
00000010
00000100
,
00000002
00000000
00000000
00001000
00000000
00000000
00001003
00000000
,
00000001
00000010
00000001
00000010
,
00000100
00001000
00000100
00001000
,
00000100
00010000
00001000
01000000
,
00100000
00000000
00000000
10100000
00000000
00000000
10010000
00000000
,
00010000
01000000
00010000
01000000
,
00001000
00010000
00001000
00010000
,
00000100
00001000
00000100
00000010
,
00000011
00000000
00000000
00001001
00000000
00000000
00001100
00000000
,
00000100
00000000
00010000
00000000
00001000
00010000
00001000
00000000
,
01000000
00000000
00010000
00000000
10000000
00010000
10000000
00000000
,
00100000
00000000
01000000
00000000
00010000
10000000
00010000
00000000
,
10000000
00000000
00000000
11000000
00000000
00000000
01100000
00000000
,
00100000
00000000
00000000
00001000
00100000
00000000
00001000
00000000
,
00011000
00000000
00000000
00010000
00000100
00000000
00001000
00000000
,
00000100
00001100
00001000
00000101
,
00000001
00000000
00000000
00000000
00001000
00000001
00001000
00000001
,
00002000
00000000
00003200
00000000
,
00020300
00000000
00032000
00000000
,
00103000
00010000
00100000
00010000
,
00110000
00000000
11000000
00000000
,
20000000
00000000
30200000
00000000
,
02300000
00000000
03002000
00000000
,
00013000
00001000
00010000
00001000
,
00011000
00000000
00000000
00000000
00010100
00000000
00000000
00010000
,
00000100
00001000
00000010
00001000
,
00000100
00001000
00000010
00001000
,
00000100
00010000
00000010
00000100
,
00000101
00000000
00001010
00000000
,
00000010
00010000
00000100
00010000
,
00000010
00010000
00000100
00010000
,
00000010
00000100
00001000
00010000
,
00200000
00000000
00000000
00000000
,
01300000
00010000
00100000
00010000
,
01000000
00100000
10000000
01000000
,
10000000
00100000
01000000
00010000
,
01010000
00000000
10100000
00000000
,
10000000
01000000
10000000
00100000
,
10000000
01000000
10000000
00100000
,
01000000
00001000
00100000
01000000
,
11000000
00000000
00110000
00000000
,
00100000
00000000
00010000
00000000
00100000
00001000
00100000
00000000
,
00001000
00000000
00010000
00000000
00000010
00001000
00000010
00000000
,
00000100
00000000
00000001
00000000
00001000
00000001
00001000
00000000
,
00000100
00000000
00010000
00000000
00001000
00010000
00001000
00000000
,
01000000
00001000
00010000
00000100
,
00010000
00001000
00100000
01000000
,
10000000
00010000
10000000
00010000
,
01100000
00000000
10010000
00000000
,
00022000
00000000
00000000
00000000
,
00000000
00000000
00000000
00000000
,
00000000
00000000
00000000
00000000
00000000
00000000
00000000
00000000
00000000
00000000
00000000
00000000
00000000
00000000
00000000
00000000
00000000
00000000
00000000
00000000
00033000
00000000
00000000
00000000
00020000
00000000
00000000
00000000
00000000
00030000
00001000
00000000
,
00002000
00000000
02003000
00000000
03200000
00000000
00000000
10000000
20300000
00000000
32000000
00000000
03200000
00000000
00000000
00001000
,
00302000
00000000
00003200
00000000
00000320
00000000
00000000
00001030
00002000
00000000
00003002
00000000
00000103
00000000
00000000
00000000
,
00000001
00000100
00000000
00000100
00000010
00000000
00001000
00000000
,
00000010
00001000
00000100
00010000
,
00001000
00000000
00010000
00000000
00000010
00010000
00000010
00000000
,
00001000
00000010
00000000
00000010
00000100
00000000
00000001
00000000
,
00000001
00000010
00000000
00000010
00000100
00000000
00001000
00000000
,
00000100
00010000
00000000
00010000
00001000
00000000
00010000
00000000
,
00001000
00100000
00000000
00100000
01000000
00000000
10000000
00000000
,
10000000
10010000
00000000
10000000
,
01000000
00100000
00000000
00100000
00010000
00000000
10000000
00000000
,
00010000
00100000
00001000
00100000
,
00010000
00000000
00100000
00000000
00001000
00100000
00001000
00000000
,
00001000
00010000
00000000
00010000
00000100
00000000
00001000
00000000
,
00000001
00001000
00000000
00001000
00000001
00000000
00000100
00000000
,
00000010
00000000
00001000
00000000
00000010
00010000
00000010
00000000
,
00010000
00000000
00001000
00000000
00010000
00001000
00010000
00000000
,
00001000
01000000
00000000
01000000
00100000
00000000
10000000
00000000
,
00010000
00100000
00000000
00100000
01000000
00000000
10000000
00000000
,
01000000
00010000
00001000
00000010
,
00000001
00000000
00001000
00000000
00000001
00001000
00000001
00000000
,
00001000
00000100
00000000
00000010
00000001
00000000
00001000
00000000
,
00000100
00010000
00000000
00010000
00001000
00000000
00010000
00000000
,
01000000
00100000
00000000
00100000
01000000
00000000
10000000
00000000
,
00010000
01000000
00000000
01000000
00100000
00000000
10000000
00100000
,
01000000
00010000
10000000
00100000
01000000
00010000
00100000
00000000
,
00000000
00010000
00000000
00000000
00110000
00000000
11000000
00000000
,
00000000
01000000
00000000
00000000
10000000
00000000
01000000
00000000
,
00000000
11000000
00000000
00000000
00100000
00000000
00010000
00000000
,
00000000
00110000
00000000
00000000
00100000
00000000
00001000
00000000
,
00000000
00011000
00000000
00000000
00010000
00000000
00000010
00000000
,
00000000
00000110
00000000
00000000
00000101
00000000
00001010
00000000
,
00000000
00010010
00000000
00000000
00011000
00000000
01001000
00000000
,
00000000
01100000
00000000
00000000
10010000
00000000
22000000
00000000
,
00000000
00000000
00000000
00000000
,
00000000
00000000
33000000
00000000
;
