#VERSION:0.83;
#TITLE:TUBTHUMPING;
#SUBTITLE:;
#ARTIST:CHUMBAWAMBA;
#TITLETRANSLIT:;
#SUBTITLETRANSLIT:;
#ARTISTTRANSLIT:;
#GENRE:Dance Dance Revolution 2nd Link Version,Dancing Stage Euromix 1;
#CREDIT:;
#MUSIC:TUBTHUMPING.mp3;
#BANNER:TUBTHUMPING.png;
#BACKGROUND:TUBTHUMPING-bg.png;
#CDTITLE:;
#SAMPLESTART:13.051;
#SAMPLELENGTH:11.838;
#SELECTABLE:YES;
#OFFSET:-0.034;
#BPMS:0.000=103.800;
#STOPS:;
#SPEEDS:0.000=1.000=0.000=0;
#SCROLLS:0.000=1.000;
#TICKCOUNTS:0.000=0;
#TIMESIGNATURES:0.000=4=4;
#COMBOS:0.000=1;
#DISPLAYBPM:104.000;
#BGCHANGES:;
#FGCHANGES:;

//--------------- dance-single - HellKiteChaos ----------------
#NOTEDATA:;
#STEPSTYPE:dance-single;
#DESCRIPTION:HellKiteChaos;
#DIFFICULTY:Challenge;
#METER:13;
#RADARVALUES:0,0,0,0,0;
#OFFSET:-0.034;
#BPMS:0.000=103.800;
#SPEEDS:0.000=1.000=0.000=0;
#SCROLLS:0.000=1.000;
#TICKCOUNTS:0.000=0;
#TIMESIGNATURES:0.000=4=4;
#COMBOS:0.000=1;
#CHARTNAME:;
#CHARTSTYLE:;
#CREDIT:;
#NOTES:
0000
0000
0000
0000
,
0000
0000
0000
0000
,
0000
0000
0000
0000
,
0000
0000
0000
0000
0000
1001
1001
1001
,
0200
0000
0000
0000
0000
0000
0000
0000
0000
0000
0000
0000
0300
0000
0000
0000
0001
0000
0100
0000
0000
0000
0001
0000
0100
0000
0000
0000
0001
0000
0200
0000
0000
0000
0000
0000
0300
0000
0000
0000
0000
0000
1000
0000
0000
0200
0000
0000
,
0000
0000
0000
0300
0010
0000
0001
0000
0000
0000
0010
0000
0001
0000
0000
0000
0000
0000
1000
0000
0000
0200
0000
0000
0000
0000
0000
0300
0000
0000
1001
0000
0000
0000
0000
0000
1001
0000
0000
0000
0000
0000
1001
0000
0000
0000
0000
0000
,
0200
0000
0000
0000
0000
0000
0000
0000
0000
0000
0000
0000
0300
0000
0000
0000
0001
0000
0010
0000
0000
0000
0001
0000
0010
0000
0000
0000
0001
0000
0010
0000
0000
0000
0000
0000
0000
0000
0000
0000
0000
0000
0001
0000
0000
2000
0000
0000
,
0000
0000
0000
3000
0010
0000
0100
0000
0000
0000
0010
0000
0100
0000
0000
0000
0000
0000
0001
0000
0000
0020
0000
0000
0000
0000
0000
0030
0000
0000
1001
0000
0000
0000
0000
0000
1001
0000
0000
0000
0000
0000
1001
0000
0000
0000
0000
0000
,
0200
0000
0000
0000
0000
0000
0000
0000
0000
0000
0000
0000
0300
0000
0000
0000
1000
0000
0010
0000
0000
0000
1000
0000
0010
0000
0000
0000
1000
0000
0020
0000
0000
0000
0000
0000
0030
0000
0000
0000
0000
0000
0001
0000
0000
0020
0000
0000
,
0000
0000
0000
0030
0100
0000
1000
0000
0000
0000
0100
0000
1000
0000
0000
0000
0000
0000
0001
0000
0000
0020
0000
0000
0000
0000
0000
0030
0000
0000
1001
0000
0000
0000
0000
0000
1001
0000
0000
0000
0000
0000
1001
0000
0000
0000
0000
0000
,
0200
0000
0000
0000
0000
0000
0000
0000
0000
0000
0000
0000
0300
0000
0000
0000
1000
0000
0100
0000
0000
0000
1000
0000
0100
0000
0000
0000
1000
0000
0100
0000
0000
0000
0000
0000
0000
0000
0000
0000
0000
0000
1000
0000
0000
0002
0000
0000
,
0000
0000
0000
0003
0100
0000
0010
0000
0000
0000
0100
0000
0010
0000
0000
0000
0000
0000
1000
0000
0000
0200
0000
0000
0000
0000
0000
0000
0000
0000
0000
0000
0000
0000
0000
0000
0300
0000
0000
0000
0000
0000
0000
0000
0000
0000
0000
0000
,
1000
0000
0100
0000
0001
0100
1000
0100
,
0001
0000
1000
0000
0001
0010
1000
0010
,
0001
0000
1000
0000
0001
0100
1000
0010
,
0001
0000
0000
0000
0000
0000
1000
0000
0000
0000
0000
0000
0001
0000
0000
0100
0000
0000
0010
0000
1000
0010
0000
1000
,
0010
0000
1000
0010
0000
0000
1000
0000
0001
0010
0000
0001
0010
0000
0001
0010
0000
0000
0001
0000
1000
0100
0000
1000
,
0100
0000
1000
0100
0000
0000
1000
0000
0001
0100
0000
0001
0100
0000
0001
0100
0000
0000
0001
0000
0000
1000
0000
0000
,
0001
0000
0100
0001
0000
0001
0100
0000
0100
0001
0000
0001
0100
0000
0000
0001
0000
0000
1000
0000
0000
0001
0000
0000
,
1000
0000
0100
1000
0000
1000
0100
0000
0100
1000
0000
1000
0100
0000
0000
0100
0000
0000
0010
0000
0000
0001
0000
0000
,
2001
0000
0000
0000
0100
0000
0000
0000
0010
0000
0000
0001
0000
0000
3100
0000
,
1002
0000
0000
0000
0100
0000
0000
0000
0010
0000
0000
1000
0000
0000
0103
0000
,
2001
0000
0000
0000
0010
0000
0000
0000
0100
0000
0000
0001
0000
0000
3010
0000
,
0100
0100
0100
0100
0100
1001
1001
1001
,
0200
0000
0000
0000
0000
0000
0000
0000
0000
0000
0000
0000
0300
0000
0000
0000
0001
0000
0100
0000
0000
0000
0001
0000
0100
0000
0000
0000
0001
0000
0200
0000
0000
0000
0000
0000
0300
0000
0000
0000
0000
0000
1000
0000
0000
0200
0000
0000
,
0000
0000
0000
0300
0010
0000
0001
0000
0000
0000
0010
0000
0001
0000
0000
0000
0000
0000
1000
0000
0000
0200
0000
0000
0000
0000
0000
0300
0000
0000
1001
0000
0000
0000
0000
0000
1001
0000
0000
0000
0000
0000
1001
0000
0000
0000
0000
0000
,
0200
0000
0000
0000
0000
0000
0000
0000
0000
0000
0000
0000
0300
0000
0000
0000
0001
0000
0010
0000
0000
0000
0001
0000
0010
0000
0000
0000
0001
0000
0010
0000
0000
0000
0000
0000
0000
0000
0000
0000
0000
0000
0001
0000
0000
2000
0000
0000
,
0000
0000
0000
3000
0010
0000
0100
0000
0000
0000
0010
0000
0100
0000
0000
0000
0000
0000
0001
0000
0000
0020
0000
0000
0000
0000
0000
0030
0000
0000
1001
0000
0000
0000
0000
0000
1001
0000
0000
0000
0000
0000
1001
0000
0000
0000
0000
0000
,
0200
0000
0000
0000
0000
0000
0000
0000
0000
0000
0000
0000
0300
0000
0000
0000
1000
0000
0010
0000
0000
0000
1000
0000
0010
0000
0000
0000
1000
0000
0020
0000
0000
0000
0000
0000
0030
0000
0000
0000
0000
0000
0001
0000
0000
0020
0000
0000
,
0000
0000
0000
0030
0100
0000
1000
0000
0000
0000
0100
0000
1000
0000
0000
0000
0000
0000
0001
0000
0000
0020
0000
0000
0000
0000
0000
0030
0000
0000
1001
0000
0000
0000
0000
0000
1001
0000
0000
0000
0000
0000
1001
0000
0000
0000
0000
0000
,
0200
0000
0000
0000
0000
0000
0000
0000
0000
0000
0000
0000
0300
0000
0000
0000
1000
0000
0100
0000
0000
0000
1000
0000
0100
0000
0000
0000
1000
0000
0100
0000
0000
0000
0000
0000
0000
0000
0000
0000
0000
0000
1000
0000
0000
0002
0000
0000
,
0000
0000
0000
0003
0100
0000
0010
0000
0000
0000
0100
0000
0010
0000
0000
0000
0000
0000
1000
0000
0000
0200
0000
0000
0000
0000
0000
0300
0000
0000
1001
0000
0000
0000
0000
0000
1001
0000
0000
0000
0000
0000
1001
0000
0000
0000
0000
0000
,
0200
0300
0000
0000
;

//--------------- dance-double - HellKiteChaos ----------------
#NOTEDATA:;
#STEPSTYPE:dance-double;
#DESCRIPTION:HellKiteChaos;
#DIFFICULTY:Challenge;
#METER:13;
#RADARVALUES:0,0,0,0,0;
#NOTES:
00000000
00000000
00000000
00000000
,
00000000
00000000
00000000
00000000
,
00000000
00000000
00000000
00000000
,
00000000
00000000
00000000
00000000
00000000
00010000
00010000
00010000
,
02000000
00000000
00000000
00000000
00000000
00000000
00000000
00000000
00000000
00000000
00000000
00000000
03000000
00000000
00000000
00000000
00100000
00000000
01000000
00000000
00000000
00000000
00100000
00000000
01000000
00000000
00000000
00000000
00100000
00000000
02000000
00000000
00000000
00000000
00000000
00000000
03000000
00000000
00000000
00000000
00000000
00000000
00010000
00000000
00000000
10000000
00000000
00000000
,
00000000
00000000
00000000
00000000
01000000
00000000
00100000
00000000
00000000
00000000
01000000
00000000
00100000
00000000
00000000
00000000
00000000
00000000
00010000
00000000
00000000
20000000
00000000
00000000
00000000
00000000
00000000
30000000
00000000
00000000
10010000
00000000
00000000
00000000
00000000
00000000
10010000
00000000
00000000
00000000
00000000
00000000
10020000
00000000
00000000
00000000
00000000
00000000
,
02030000
00000000
00000000
00000000
00000000
00000000
00000000
00000000
00000000
00000000
00000000
00000000
03000000
00000000
00000000
00000000
00001000
00000000
00010000
00000000
00000000
00000000
00001000
00000000
00010000
00000000
00000000
00000000
00001000
00000000
00020000
00000000
00000000
00000000
00000000
00000000
00030000
00000000
00000000
00000000
00000000
00000000
00000100
00000000
00000000
00000020
00000000
00000000
,
00000000
00000000
00000000
00000000
00000031
00000000
00001000
00000000
00000000
00000000
00000001
00000000
00001000
00000000
00000000
00000000
00000000
00000000
00000010
00000000
00000000
00000200
00000000
00000000
00000000
00000000
00000000
00000300
00000000
00000000
00000110
00000000
00000000
00000000
00000000
00000000
00000110
00000000
00000000
00000000
00000000
00000000
00000110
00000000
00000000
00000000
00000000
00000000
,
00000200
00000000
00000000
00000000
00000000
00000000
00000000
00000000
00000000
00000000
00000000
00000000
00000300
00000000
00000000
00000000
00000010
00000000
00001000
00000000
00000000
00000000
00000010
00000000
00001000
00000000
00000000
00000000
00000010
00000000
00002000
00000000
00000000
00000000
00000000
00000000
00003000
00000000
00000000
00000000
00000000
00000000
00000001
00000000
00000000
00000020
00000000
00000000
,
00000000
00000000
00000000
00000000
00000130
00000000
00001000
00000000
00000000
00000000
00000100
00000000
00001000
00000000
00000000
00000000
00000000
00000000
00000010
00000000
00000000
00020000
00000000
00000000
00000000
00000000
00000000
00030000
00000000
00000000
00011000
00000000
00000000
00000000
00000000
00000000
00011000
00000000
00000000
00000000
00000000
00000000
00012000
00000000
00000000
00000000
00000000
00000000
,
02003000
00000000
00000000
00000000
00000000
00000000
00000000
00000000
00000000
00000000
00000000
00000000
03000000
00000000
00000000
00000000
00100000
00000000
01000000
00000000
00000000
00000000
00100000
00000000
01000000
00000000
00000000
00000000
00100000
00000000
02000000
00000000
00000000
00000000
00000000
00000000
03000000
00000000
00000000
00000000
00000000
00000000
00010000
00000000
00000000
20000000
00000000
00000000
,
00000000
00000000
00000000
00000000
31000000
00000000
00100000
00000000
00000000
00000000
01000000
00000000
00100000
00000000
00000000
00000000
00000000
00000000
00010000
00000000
00000000
20000000
00000000
00000000
00000000
00000000
00000000
00000000
00000000
00000000
00000000
00000000
00000000
30000000
00000000
00000000
00000000
00000000
00000000
00000000
00000000
00000000
00000000
00000000
00000000
00000000
00000000
00000000
,
10000000
00000000
01000000
00000000
00010000
00001000
00000010
00000001
,
00000010
00000000
00001000
00000000
00010000
01000000
10000000
01000000
,
00010000
00000000
00001000
00000000
00000100
00000001
00000100
00001000
,
00010000
00000000
00000000
00000000
00000000
00000000
00100000
00000000
00000000
00000000
00000000
00000000
10000000
00000000
00000000
01000000
00000000
00000000
00100000
00000000
00010000
00100000
00000000
00010000
,
00100000
00000000
00010000
00100000
00000000
00000000
00001000
00000000
00010000
00001000
00000000
00010000
00001000
00000000
00010000
00001000
00000000
00000000
00010000
00000000
00000100
00001000
00000000
00000100
,
00001000
00000000
00000100
00001000
00000000
00000000
00000001
00000000
00000100
00000001
00000000
00000100
00000001
00000000
00000100
00000001
00000000
00000000
00001000
00000000
00000000
00000100
00000000
00001000
,
00000100
00000000
00000000
00010000
00000000
00000000
00001000
00000000
00010000
00001000
00000000
00000000
00010000
00000000
00000000
00011000
00000000
00000000
00000000
00000000
00000000
00001000
00000000
00100000
,
00010000
00000000
00000000
00100000
00000000
00000000
00010000
00000000
00000000
10000000
00000000
00100000
10000000
00000000
00000000
00100000
00000000
00000000
01000000
00000000
00000000
00010000
00000000
00000000
,
20010000
00000000
00000000
00000000
01000000
00000000
00000000
00000000
00100000
00000000
00000000
00010000
00000000
00000000
30001000
00000000
,
00002000
00000000
00000000
00000000
01000000
00000000
00000000
00000000
00100000
00000000
00000000
01000000
00000000
00000000
00013000
00000000
,
00020000
00000000
00000000
00000000
00000010
00000000
00000000
00000000
00000100
00000000
00000000
00001000
00000000
00000000
00030010
00000000
,
00000100
00000100
00000100
00000100
00000100
00001001
00001001
00001001
,
00000200
00000000
00000000
00000000
00000000
00000000
00000000
00000000
00000000
00000000
00000000
00000000
00000300
00000000
00000000
00000000
00000100
00000000
00000010
00000000
00000000
00000000
00000100
00000000
00000010
00000000
00000000
00000000
00000100
00000000
00000020
00000000
00000000
00000000
00000000
00000000
00000030
00000000
00000000
00000000
00000000
00000000
00001000
00000000
00000000
00000001
00000000
00000000
,
00000000
00000000
00000000
00000000
00000010
00000000
00000100
00000000
00000000
00000000
00000010
00000000
00000100
00000000
00000000
00000000
00000000
00000000
00001000
00000000
00000000
00000002
00000000
00000000
00000000
00000000
00000000
00000003
00000000
00000000
00001001
00000000
00000000
00000000
00000000
00000000
00001001
00000000
00000000
00000000
00000000
00000000
00002001
00000000
00000000
00000000
00000000
00000000
,
00003200
00000000
00000000
00000000
00000000
00000000
00000000
00000000
00000000
00000000
00000000
00000000
00000300
00000000
00000000
00000000
00010000
00000000
00001000
00000000
00000000
00000000
00010000
00000000
00001000
00000000
00000000
00000000
00010000
00000000
00002000
00000000
00000000
00000000
00000000
00000000
00003000
00000000
00000000
00000000
00000000
00000000
00100000
00000000
00000000
02000000
00000000
00000000
,
00000000
00000000
00000000
00000000
13000000
00000000
00010000
00000000
00000000
00000000
10000000
00000000
00010000
00000000
00000000
00000000
00000000
00000000
01000000
00000000
00000000
00200000
00000000
00000000
00000000
00000000
00000000
00300000
00000000
00000000
01100000
00000000
00000000
00000000
00000000
00000000
01100000
00000000
00000000
00000000
00000000
00000000
01100000
00000000
00000000
00000000
00000000
00000000
,
02000000
00000000
00000000
00000000
00000000
00000000
00000000
00000000
00000000
00000000
00000000
00000000
03000000
00000000
00000000
00000000
00010000
00000000
01000000
00000000
00000000
00000000
00010000
00000000
01000000
00000000
00000000
00000000
00010000
00000000
02000000
00000000
00000000
00000000
00000000
00000000
03000000
00000000
00000000
00000000
00000000
00000000
00010000
00000000
00000000
00200000
00000000
00000000
,
00000000
00000000
00000000
00300000
01000000
00000000
00100000
00000000
00000000
00000000
01000000
00000000
00100000
00000000
00000000
00000000
00000000
00000000
01000000
00000000
00000000
20000000
00000000
00000000
00000000
00000000
00000000
30000000
00000000
00000000
10010000
00000000
00000000
00000000
00000000
00000000
10010000
00000000
00000000
00000000
00000000
00000000
20010000
00000000
00000000
00000000
00000000
00000000
,
32000000
00000000
00000000
00000000
00000000
00000000
00000000
00000000
03000000
00000000
00000000
00000000
00000000
00000000
00000000
00000000
00100000
00000000
00010000
00000000
00000000
00000000
00100000
00000000
00010000
00000000
00000000
00000000
00100000
00000000
00020000
00000000
00000000
00000000
00000000
00000000
00000000
00000000
00030000
00000000
00000000
00000000
01000000
00000000
00000000
00010000
00000000
00000000
,
00000000
00000000
00000000
00000000
10000000
00000000
01000000
00000000
00000000
00000000
10000000
00000000
01000000
00000000
00000000
00000000
00000000
00000000
00100000
00000000
00000000
00010000
00000000
00000000
00000000
00000000
00000000
00000000
00000000
00000000
00110000
00000000
00000000
00000000
00000000
00000000
11000000
00000000
00000000
00000000
00000000
00000000
00110000
00000000
00000000
00000000
00000000
00000000
,
22000000
33000000
00000000
00000000
;
