#TITLE:TELEPHONE OPERATOR (Club MIX);
#SUBTITLE:;
#ARTIST:SHELLEY PETER;
#TITLETRANSLIT:;
#SUBTITLETRANSLIT:;
#ARTISTTRANSLIT:;
#GENRE:;
#CREDIT:;
#MUSIC:TELEPHONE OPERATOR (Club MIX).mp3;
#BANNER:TELEPHONE OPERATOR (Club MIX).png;
#BACKGROUND:TELEPHONE OPERATOR (Club MIX)-bg.png;
#CDTITLE:;
#SAMPLESTART:0.000;
#SAMPLELENGTH:0.000;
#SELECTABLE:YES;
#OFFSET:-0.054;
#BPMS:0.000=146.059;
#STOPS:128.000=0.822
,130.000=0.822
,132.000=0.822
,134.000=0.822
,152.000=1.233
;
#DISPLAYBPM:146.000;
#BGCHANGES:;
#FGCHANGES:;

//--------------- dance-single - HellKiteChaos ----------------
#NOTES:
     dance-single:
     HellKiteChaos:
     Challenge:
     12:
     0,0,0,0,0:
0000
0000
0000
0000
,
0000
0000
0000
0000
,
0000
0000
0000
0000
,
0000
0000
0000
0000
,
0002
1000
1003
0000
0002
0100
0103
0000
,
0002
0010
0013
0000
0002
1000
1003
0000
,
1010
0010
0110
0000
0101
0001
1001
0000
,
0010
0010
0010
0010
0010
0010
0010
0010
,
0100
0000
0210
0000
0310
0001
0100
1000
,
0100
0001
0010
0100
0010
0001
1002
0000
,
2003
0000
3010
0000
0100
1000
0100
0001
,
0010
1000
0010
0001
0100
0010
1002
0000
,
1003
0000
0200
0000
1300
0100
0010
0001
,
0100
1000
0100
0001
0010
0100
1100
0000
,
0001
0000
1000
0000
0110
0000
0100
0001
,
1001
0101
1010
1100
,
0010
0001
0010
0001
1000
0010
1000
0010
,
1000
0000
0100
0000
0001
0000
0100
0010
0100
0000
1000
0000
0001
0000
0000
0000
,
1000
0000
0010
0000
1100
0000
0100
0001
,
0100
0000
1000
0000
0010
0000
0100
0010
0100
0000
0010
0000
1000
0000
0001
0000
,
0010
0100
1000
0000
0010
0100
0001
2000
,
0000
0001
0001
0000
0001
0001
0000
0100
,
0100
0000
0100
0100
0000
0010
3010
0000
,
1000
0001
1000
0001
0100
0010
1000
0100
,
0110
0000
0010
0000
0001
0000
0020
0000
0000
0000
0130
0000
0100
0010
0100
0000
,
1000
0000
0001
0000
0100
0000
0020
0000
0000
0000
1030
0000
1000
0001
1000
0000
,
0010
0000
0100
0000
0001
0000
2000
0000
0000
0000
3100
0000
0100
0010
0100
0000
,
0010
0000
0001
0000
0100
0000
0020
0000
0000
0000
1030
0000
1000
0100
1000
0000
,
0001
0100
0001
0100
0010
1000
0010
1000
,
0001
0100
0001
0100
0010
1000
0010
1000
,
0001
0100
0010
1000
0001
0100
0010
1000
,
0002
0000
0000
0000
,
1003
0000
0000
0100
0100
0000
0000
0000
,
0110
0000
0000
0010
0010
0000
0000
0000
,
0001
0000
0010
0000
0100
0000
1000
0000
0001
0000
0010
0000
0100
0000
1000
0001
,
1000
0000
0010
0000
0100
0000
0001
0000
1000
0000
0010
0000
0100
0000
0001
1000
,
0001
0000
0010
0000
0100
0000
1000
0001
1000
0000
0010
0000
0100
0000
0001
0000
,
1000
0100
1000
0000
0001
0010
0001
0000
1000
0001
1000
0001
1000
0001
1000
0001
,
1000
0000
1001
0000
0101
0000
0010
1000
,
0100
0001
0100
1000
0010
0100
0010
1000
,
1001
0000
1001
0000
0011
0000
0100
1000
,
0010
0001
0010
1000
0100
0001
0100
1000
,
1010
0000
0101
0000
0011
0000
0100
1000
,
0010
1000
0100
0001
0100
1000
0010
1000
,
0100
0000
1100
0000
1001
0000
0001
0100
,
1000
0100
0001
0010
0001
0100
1000
0100
,
0001
0000
1000
0100
0010
0000
0001
0100
,
0010
2000
0000
0001
0001
0000
0100
0100
,
0000
0001
0001
0000
0010
0010
0000
0001
,
3001
0000
0100
1000
0100
0001
0010
0001
,
0100
1000
0100
0001
0010
1000
0010
0001
,
1000
0001
2002
0000
0000
0000
0000
0000
,
0000
3003
0000
0000
;

//--------------- dance-double - HellKiteChaos ----------------
#NOTES:
     dance-double:
     HellKiteChaos:
     Challenge:
     12:
     0,0,0,0,0:
00000000
00000000
00000000
00000000
,
00000000
00000000
00000000
00000000
,
00000000
00000000
00000000
00000000
,
00000000
00000000
00000000
00000000
,
00020000
00001000
00031000
00000000
00002000
00100000
00103000
00000000
,
02000000
00100000
03100000
00000000
00020000
10000000
10030000
00000000
,
10000000
00100000
20100000
00000000
30010000
01000000
01020000
00000000
,
00130000
00100000
00100000
00100000
00100000
00100000
00001000
00010000
,
00012000
00000000
00023000
00000000
00031000
00010000
01000000
10000000
,
01000000
00010000
00001000
00000010
00001000
00010000
00011000
00000000
,
00020000
00000000
00032000
00000000
00013000
00001000
00000100
00000001
,
00000100
00001000
00010000
00100000
00010000
00001000
00011000
00000000
,
00002000
00000000
00023000
00000000
00031000
00010000
01000000
00100000
,
00010000
01000000
00100000
00010000
00001000
00010000
00011000
00000000
,
00020000
00000000
00032000
00000000
00013000
00001000
00000100
00000010
,
00001000
00000100
00000010
00001000
00010000
00001000
00011000
00000000
,
00010000
00001000
00010000
00001000
00100000
01000000
00100000
01000000
,
10000000
00000000
00100000
00000000
01000000
00000000
00010000
10000000
00010000
00000000
00100000
00000000
01100000
00000000
00000000
00000000
,
10000000
00010000
10000000
00010000
01000000
00100000
01000000
00100000
,
10000000
00000000
01000000
00000000
00010000
00000000
00001000
00010000
00001000
00000000
00010000
00000000
00011000
00000000
00000000
00000000
,
00001000
00000100
00000001
00000000
00001000
00000010
00000100
00000002
,
00000000
00001000
00001000
00000000
00001000
00001000
00000000
00000010
,
00000010
00000000
00000010
00000010
00000000
00000100
00000103
00000000
,
00000001
00000100
00000010
00000100
00001000
00010000
00001000
00010000
,
00012000
00000000
00203000
00000000
01300000
10000000
00100000
01000000
,
02100000
00000000
03020000
00000000
00130000
00001000
00010000
00001000
,
00000200
00000000
00000320
00000000
00001030
00000001
00000100
00000010
,
00002000
00000000
00003200
00000000
00010300
00001000
00010000
00000000
,
00001000
00100000
00010000
01000000
00001000
00100000
00010000
01000000
,
00001000
00010000
00000010
00000100
00001000
00010000
00000010
00000100
,
00001000
00000100
00000001
00000100
00001000
00000100
00000001
00001000
,
00000100
00000000
00000000
00000000
,
00000110
00000000
00000000
01000000
01100000
00000000
00000000
00000000
,
00000110
00000000
00000000
00100000
01100000
00000000
00000000
00000000
,
10000000
01000000
00100000
00001000
10000000
01000000
00100000
00001000
,
00010000
00000010
00001000
00000100
00010000
00000010
00001000
00000100
,
00010000
00000010
00000100
00000001
00010000
00000010
00000100
00000001
,
00001000
00000001
00001000
00000000
00000001
00001000
00000001
00000000
00000100
00000010
00000100
00000010
00000100
00000010
00000100
00000010
,
00000100
00000000
10010000
00000000
01010000
00000000
00100000
10000000
,
01000000
00010000
01000000
10000000
00100000
01000000
00010000
10000000
,
10010000
00000000
00011000
00000000
00011000
00000000
00001000
00000100
,
00000010
00000100
00001000
00000100
00000010
00001000
00000100
00000010
,
00000110
00000000
00000011
00000000
00001100
00000000
00000001
00000010
,
00001000
00000010
00000001
00000100
00001000
00000100
00000010
00001000
,
00001001
00000000
00011000
00000000
00011000
00000000
00010000
01000000
,
10000000
00100000
00010000
00100000
10000000
01000000
00100000
00010000
,
10010000
00000000
10000000
10000000
10000000
00000000
00100000
00100000
,
00100000
02000000
00000000
00010000
00010000
00000000
10000000
10000000
,
00000000
00010000
00010000
00000000
00100000
00100000
00000000
00001000
,
03002000
00000000
00013000
00001000
01000000
00001000
00010000
00000100
,
00010000
00000010
00000100
00000010
00000100
00000001
00001000
00000010
,
00000100
00000001
00002002
00000000
00000000
00000000
00000000
00000000
,
00000000
00003003
00000000
00000000
;
