#VERSION:0.83;
#TITLE:Spin the disc;
#SUBTITLE:;
#ARTIST:good-cool;
#TITLETRANSLIT:;
#SUBTITLETRANSLIT:;
#ARTISTTRANSLIT:;
#GENRE:Dance Dance Revolution 7th Mix -Max2-,Dancing Stage Euromix 2;
#CREDIT:;
#MUSIC:Spin the disc.mp3;
#BANNER:Spin the disc.png;
#BACKGROUND:Spin the disc-bg.png;
#CDTITLE:;
#SAMPLESTART:29.579;
#SAMPLELENGTH:11.077;
#SELECTABLE:YES;
#OFFSET:-0.041;
#BPMS:0.000=130.000
,158.500=260.000
,159.000=130.000
,160.000=260.000
,160.500=130.000
;
#STOPS:158.500=0.058
,158.750=0.058
,160.000=0.058
,160.250=0.058
;
#SPEEDS:0.000=1.000=0.000=0;
#SCROLLS:0.000=1.000,
193.500=0.900,
194.000=0.800,
194.500=0.700,
195.000=0.600,
195.500=0.500,
196.000=0.400,
196.500=0.300,
197.000=0.200,
197.500=0.100,
198.000=0.050
;
#TICKCOUNTS:0.000=0;
#TIMESIGNATURES:0.000=4=4;
#COMBOS:0.000=1;
#DISPLAYBPM:130.000;
#BGCHANGES:;
#FGCHANGES:;

//--------------- dance-single - HellKiteChaos ----------------
#NOTEDATA:;
#STEPSTYPE:dance-single;
#DESCRIPTION:HellKiteChaos;
#DIFFICULTY:Challenge;
#METER:13;
#RADARVALUES:0,0,0,0,0;
#NOTES:
0000
0000
0000
0000
,
0000
0000
0000
0000
,
0000
0000
0000
0000
1000
0001
0000
0010
,
0100
0000
1000
0000
0000
0000
0001
1000
0001
0000
0100
0000
0110
0000
0010
0000
,
1000
0001
2001
0100
3100
0010
0000
0001
,
1000
0000
0100
0000
0001
0000
0100
1000
0200
0000
1000
0000
0010
0000
0320
0000
,
0031
1000
0001
1000
0100
1000
0100
1000
0001
0000
0100
0000
0010
0000
0100
0000
,
0001
0100
1000
0100
0002
0100
0203
0010
,
0310
0000
1000
0000
0001
0100
0001
0100
0002
0000
0010
0000
0000
0000
1000
0000
,
0000
0100
0000
0013
0100
2000
0000
0010
,
0000
0001
0000
3100
0010
0002
0000
0100
,
0000
0010
0000
1003
0001
0100
0010
1000
,
0100
0010
0001
1000
0010
0200
0000
1000
,
0000
0010
0000
0301
0010
0200
0000
0001
,
0000
0010
0000
1300
0001
0100
0000
0010
,
1000
0001
0010
0100
2200
0000
0000
3300
,
0001
0100
0001
0000
1000
0100
1000
0100
1000
0000
0001
0000
0000
0100
0010
0000
,
1000
0000
0001
0000
0000
0010
0100
0000
1000
0000
0100
0000
0000
0010
0001
0000
,
1000
0000
0010
0000
0100
0010
0100
0010
0100
0000
0001
0000
0000
1000
0100
0000
,
0010
0000
0010
0000
0000
0001
1000
0000
0001
0000
0001
0100
0000
0100
0010
0000
,
0010
1000
0000
0000
2001
0000
0000
0000
3010
0000
1000
0000
0000
0001
0100
0000
,
0100
0000
0010
0000
0000
1000
0001
0000
0010
0000
0010
0000
0000
0100
1000
0000
,
0001
0000
1000
0000
0001
0010
0001
0010
0200
0000
0000
0000
2300
0000
0000
0000
,
3002
0000
0000
0000
0103
0000
0010
0000
2000
0000
3002
0000
0203
0000
0300
0010
,
0000
1000
0002
0000
0000
0000
0000
0000
1003
0000
0100
0000
0001
0000
0100
0000
,
1000
0100
0001
0100
0010
0100
0001
0100
,
1000
0100
0100
0100
0010
0001
0100
0001
,
0010
0001
0100
0002
0000
0013
0100
1000
,
0001
0000
0100
0001
0100
0000
0010
1000
0010
0000
0100
0000
0001
0000
0010
0000
,
0001
0100
0001
0010
0001
0100
1000
0100
,
0001
0100
0020
0000
1030
0100
1000
0001
,
0100
0001
0010
0001
2000
0000
3001
1000
,
0100
0010
0000
0010
0000
0000
0110
0000
0002
0000
0103
0000
0020
0000
1030
0000
,
0001
0010
0000
0010
0100
0000
1000
0000
0200
0000
0310
0000
0020
0000
0031
0000
,
1000
0100
0000
0100
0010
0000
0001
0000
2000
0000
3010
0000
0200
0000
0301
0000
,
1000
0010
0000
0010
0100
0000
0001
0000
1000
0100
0000
0100
0010
0000
0001
0010
,
0001
0010
0001
0000
1001
0000
0000
0000
2000
0000
3010
0000
0200
0000
0301
0000
,
1000
0100
0000
0100
0010
0000
0001
0000
0020
0000
0130
0000
0200
0000
1300
0000
,
0001
0010
0000
0010
0100
0000
1000
0000
0002
0000
0103
0000
0020
0000
1030
0000
,
0001
0100
0000
0100
0010
0000
1000
0000
1001
0000
0100
0010
0100
0000
1001
0000
,
0010
0100
0010
0000
1000
0001
1000
0000
0001
0000
0100
0000
0010
1000
0010
1000
,
0020
0000
0000
0000
1030
0000
0001
0000
1000
0000
0100
0000
0010
0001
0010
0001
,
0020
0000
0000
0000
0031
0000
1000
0000
0010
0000
0100
0000
0001
1000
0001
1000
,
0002
0000
0013
0100
1000
0100
0001
0100
,
1000
0000
0001
0000
0100
0000
0010
0000
1010
0000
1000
0000
0001
0100
0001
0100
,
0002
0000
0000
0000
0013
0000
0100
0000
1000
0000
0001
0000
0100
0010
0100
0010
,
0200
0000
0000
0000
0310
0000
1000
0000
0001
0000
0010
0000
0100
1000
0100
1000
,
0200
0000
1300
0001
0100
0010
0010
0100
,
0100
0001
0010
0200
0000
0000
0000
0000
,
0000
0000
0000
0000
0000
0300
0000
0000
;

//--------------- dance-double - HellKiteChaos ----------------
#NOTEDATA:;
#STEPSTYPE:dance-double;
#DESCRIPTION:HellKiteChaos;
#DIFFICULTY:Challenge;
#METER:13;
#RADARVALUES:0,0,0,0,0;
#NOTES:
00000000
00000000
00000000
00000000
,
00000000
00000000
00000000
00000000
,
00000000
00000000
00000000
00000000
00001000
00010000
00000000
00001000
,
00010000
00001000
00000000
00010000
00001000
00000010
00000001
00000100
,
00001000
00000010
00000001
00000100
00000010
00000100
00000010
00001000
,
00000001
00001000
00000000
00000001
00001000
00000100
00000001
00000010
,
00001000
00000100
00000010
00000001
00001000
00000100
00000000
00000100
,
00010000
00001000
00000000
00010000
00001000
01000000
00100000
10000000
,
01000000
00010000
00100000
10000000
01000000
00000000
00020000
00000000
,
00100000
00000000
10030000
00010000
20000000
00000000
01000000
00000000
,
00010000
00000000
30100000
01000000
00002000
00000000
00100000
00000000
,
01000000
00000000
00103000
01000000
00010000
01000000
10000000
00100000
,
00010000
01000000
00100000
10000000
00010000
00000000
20000000
00000000
,
00100000
00000000
31000000
00100000
00002000
00000000
00010000
00000000
,
00000100
00000000
00013000
00000100
00000010
00000001
00000100
00001000
,
00000010
00000001
00000100
00000010
00002000
00000000
00003000
00000000
,
00000010
00001000
00000010
00000000
00000100
00000001
00000100
00000001
00002000
00000000
00000000
00000000
00003010
00000000
00000010
00000000
,
00000100
00001000
00000100
00000001
00000020
00000000
00000130
00000100
,
00000010
00000001
00000100
00000010
00020000
00000000
00031000
00001000
,
00010000
00000000
01000000
00000000
10000000
00000000
01000000
00000000
00200000
00000000
00300000
00020000
00000000
00030000
02000000
00000000
,
03000000
20000000
00000000
30000000
00200000
00000000
00300000
00000000
01100000
00000000
00000000
00000000
10010000
00000000
00000000
00000000
,
00010000
01000000
00002000
00000000
00013000
00000000
00011000
00000000
,
00010000
00000100
00000020
00000000
00000031
00000000
00000101
00000000
,
00000010
00000000
00001000
00000000
00000200
00000000
00000000
00000000
00001300
00000000
00000010
00000000
00001000
00000100
00000000
00000010
,
00000000
00000001
00000200
00000000
00000000
00000000
00000000
00000000
00000310
00000000
00000100
00000000
00000010
00000000
00001000
00000000
,
00000100
00001000
00000010
00000100
00000010
00001000
00000100
00000001
,
00000010
00001000
00000100
00000010
00000001
00000100
00000020
00000000
,
00001030
00000100
00010000
00002000
00000000
01003000
00010000
00100000
,
10000000
00100000
00010000
10000000
00100000
01000000
00020000
00000000
,
00130000
01000000
20000000
00000000
30100000
00010000
01000000
10000000
,
00100000
00010000
10000000
00010000
00100000
01000000
00010000
01000000
,
01000000
00001000
00010000
00001000
00020000
00000000
00030200
00000000
,
00000310
00000001
00000000
00001000
00000000
00000000
00000100
00000000
00000010
00000000
00000001
00000000
00000100
00000000
00001000
00000000
,
00000010
00000001
00000100
00001000
00000010
00000100
00000001
00001000
,
00000010
00000100
00000001
00000000
00001000
00000100
00000010
00000001
,
00000100
00000000
00000010
00000000
00001000
00000000
00000100
00000000
00000010
00000001
00000000
00001000
00000100
00001000
00000000
00000001
,
00000100
00000001
00000000
00001000
00000010
00001000
00000010
00001000
00000001
00000000
00000100
00000000
00001000
00000000
00010000
00000000
,
00100000
01000000
00100000
00010000
00100000
01000000
00100000
10000000
,
01000000
00010000
00100000
10000000
01000000
00100000
01000000
10000000
,
00010000
00000000
00100000
00000000
01000000
00000000
10000000
00000000
00010000
00000000
10000000
00010000
10000000
00000000
00001000
00000000
,
00010000
00001000
00010000
00000000
00000001
00001000
00000001
00000000
00000100
00000000
00000010
00000000
00001000
00000000
00000100
00000000
,
00000001
00000010
00001000
00000100
00000010
00000001
00000100
00001000
,
00000100
00000010
00000100
00001000
00010000
00100000
01000000
00010000
,
10000000
00100000
01000000
00010000
00100000
01000000
10000000
01000000
,
00010000
01000000
00100000
00010000
10000000
00100000
00010000
01000000
,
10000000
00100000
01000000
00001000
00010000
00001000
00010000
00000100
,
00000010
00000001
00000100
00000010
00000100
00000001
00000010
00001000
,
00000100
00000001
00000010
00000100
00001000
00000001
00000100
00001000
,
00000100
00000001
00000010
00000200
00000000
00000000
00000000
00000000
,
00000000
00000000
00000300
00000000
;
