#TITLE:STILL IN MY HEART;
#SUBTITLE:;
#ARTIST:NAOKI;
#TITLETRANSLIT:;
#SUBTITLETRANSLIT:;
#ARTISTTRANSLIT:;
#GENRE:;
#CREDIT:;
#MUSIC:STILL IN MY HEART.mp3;
#BANNER:STILL IN MY HEART.png;
#BACKGROUND:STILL IN MY HEART-bg.png;
#CDTITLE:;
#SAMPLESTART:37.958;
#SAMPLELENGTH:9.600;
#SELECTABLE:YES;
#OFFSET:-0.758;
#BPMS:0.000=150.000;
#STOPS:;
#DISPLAYBPM:150.000;
#BGCHANGES:;
#FGCHANGES:;

//--------------- dance-single - HellKiteChaos ----------------
#NOTES:
     dance-single:
     HellKiteChaos:
     Challenge:
     12:
     0,0,0,0,0:
0000
0000
0000
0000
,
0000
0000
0000
0000
,
0000
0000
0000
0000
,
0000
0000
0000
0000
,
0001
0010
0100
1000
0010
0010
0010
0000
,
1000
0001
0010
0100
1000
1000
1000
0000
,
0001
0100
0010
0000
1000
0001
0010
0000
,
0100
1000
0100
1000
0001
0100
0010
1000
,
0100
0010
0100
1000
0010
0100
0010
1000
,
0100
0010
0001
1000
0100
0010
0001
0000
,
0100
0010
0100
0001
0010
0100
0010
0001
,
0100
0001
1000
0010
0100
0001
1000
0000
,
0001
0100
0010
0100
0001
1000
0001
0000
,
1000
0100
0010
0100
1000
0001
1000
0000
,
0010
0100
0001
1000
0000
0001
0010
0000
,
1100
0000
0000
0000
0101
0000
0000
0100
0010
0000
0100
0000
0010
0000
1000
0000
,
0001
0100
1000
0100
0001
0100
1000
0100
,
0001
0010
0001
0100
0001
0010
0001
1000
,
0200
0000
0310
0002
0000
2003
0000
3010
,
0100
0001
1000
0010
0100
0000
0110
0100
,
0001
0000
1000
0100
0000
1000
0010
0100
,
0001
0000
0010
0001
0000
0100
0010
1000
,
0100
0000
0010
0110
0000
0011
0000
0001
,
0202
0000
0000
0303
,
0010
0000
1000
0000
0001
0100
0001
0000
1000
0000
0010
0000
1000
0010
1000
0000
,
0001
0000
0010
0000
0100
1000
0100
0000
0010
0000
0001
0000
0100
0010
0100
0000
,
0001
0100
0010
0100
0001
1000
0001
1000
,
0000
1000
0100
0000
0000
0100
0010
0000
0000
0010
0001
0000
0100
0000
0010
0000
,
0100
0000
0001
0000
1000
0010
1000
0000
0001
0000
0100
0000
0001
0100
0001
0000
,
1000
0000
0100
0000
0010
0001
0010
0000
0100
0000
1000
0000
0010
0100
0010
0000
,
0100
0010
0100
0001
1000
0001
1000
0001
,
0000
0001
0010
0000
0000
0010
0100
0000
1000
0000
0001
0000
1000
0000
0001
0000
,
0200
0000
0000
0000
0000
0000
0000
0320
,
0000
0000
0000
0000
,
2030
0000
3002
0000
,
2003
0000
3000
0001
0001
0100
0010
1000
,
0001
0100
0000
0100
0000
0100
0100
0010
,
1000
0001
0000
0001
0000
1000
0100
0010
,
0001
0001
0000
1000
0010
0010
0000
0100
,
0101
0000
0000
0000
1001
0000
0000
0000
1100
0000
0000
0010
0001
0000
1000
0000
,
0100
0010
0100
1000
0100
0010
0001
0010
,
0100
0010
0001
0100
0010
1000
0001
0100
,
0010
1000
0001
1000
0010
0100
0001
0100
,
0010
1000
0100
0010
0001
0100
0010
1000
,
0100
0001
0100
1000
0010
0100
0010
1000
,
0001
0010
1000
0010
0001
0010
0100
1000
,
0001
0000
0100
0100
0000
0010
0000
0100
,
1001
0000
0000
0000
,
0000
0000
0000
0000
0010
0100
0010
0100
,
1001
0000
1000
0000
0010
0100
0010
0000
1000
0000
0001
0000
0010
0100
0010
0000
,
0001
0000
0100
0000
0010
1000
0010
0000
1000
0000
0100
0000
0010
0001
0010
0000
,
0100
1000
0010
1000
0100
0010
0001
1000
,
0000
1000
0010
0000
0000
0010
0100
0000
0000
0100
0001
0000
1000
0000
0100
0000
,
0110
0000
0010
0000
0001
1000
0001
0000
0100
0000
0001
0000
0010
0100
0010
0000
,
0001
0000
1000
0000
0010
1000
0010
0000
0100
0000
0001
0000
1000
0100
1000
0000
,
0100
0010
0100
1000
0001
0010
0001
0010
,
0000
0100
1000
1000
0001
0000
0100
0100
,
0100
0000
0000
0010
0000
0000
0100
0000
0000
0000
0001
0000
1000
0000
0001
0000
,
0010
0000
0000
0100
0000
0000
0010
0000
0000
0001
0000
0000
1000
0000
0010
0000
,
0100
0000
0001
0000
0101
0000
1100
0000
0000
0000
0000
0000
;

//--------------- dance-double - HellKiteChaos ----------------
#NOTES:
     dance-double:
     HellKiteChaos:
     Challenge:
     12:
     0,0,0,0,0:
00000000
00000000
00000000
00000000
,
00000000
00000000
00000000
00000000
,
00000000
00000000
00000000
00000000
,
00000000
00000000
00000000
00000000
,
00001000
00010000
00001000
01000000
00100000
00100000
00100000
00000000
,
10000000
00010000
10000000
01000000
00100000
00100000
00100000
00000000
,
01000000
00010000
00001000
00000000
00010000
00001000
00000010
00000000
,
00000001
00000010
00000001
00000010
00000100
00001000
00000100
00001000
,
00000001
00000100
00000010
00000100
00000010
00001000
00000100
00000010
,
00000100
00000010
00000001
00000100
00000010
00001000
00000100
00000000
,
00000010
00000100
00001000
00000000
00000010
00000100
00001000
00000000
,
00000100
00001000
00010000
00001000
00010000
00100000
01000000
00000000
,
00010000
10000000
01000000
00100000
00010000
01000000
00100000
00000000
,
10000000
00100000
00100000
01000000
00010000
00100000
01000000
00000000
,
00100000
01000000
10000000
00010000
00000000
00100000
01000000
00000000
,
11000000
00000000
00000000
00000000
01010000
00000000
00000000
01000000
00100000
00000000
01000000
00000000
00100000
00000000
10000000
00000000
,
01000000
00100000
00010000
00100000
01000000
00100000
00001000
00100000
,
00010000
01000000
00001000
00010000
00000100
00010000
00001000
00010000
,
00000200
00000000
00000310
00000002
00000000
00002003
00000000
00003010
,
00000100
00000001
00000100
00001000
00010000
00100000
10000000
00010000
,
01000000
00000000
00100000
10000000
00000000
00010000
01000000
00100000
,
10000000
00000000
00010000
00100000
00000000
01000000
10000000
00010000
,
00100000
00000000
01000000
11000000
00000000
00110000
00000000
02020000
,
00000000
00000000
00000000
03030000
,
01000000
00100000
01000000
00001000
01000000
00010000
10000000
01000000
,
00100000
00010000
10000000
01000000
00100000
01000000
00010000
00001000
,
00000010
00000001
00001000
00000000
00000010
00000100
00000001
00000011
,
00000000
00000110
00000000
00001100
00000000
00010100
00010000
00000100
,
00010000
00000000
00001000
00000000
00100000
00010000
00100000
00000000
00010000
00000000
10000000
00000000
01000000
10000000
01000000
00000000
,
10000000
00000000
00010000
00000000
01000000
00010000
01000000
00000000
00001000
00000000
00010000
00000000
00001000
00010000
00001000
00000000
,
00010000
00000100
00001000
00000010
00000100
00000001
00000010
00000110
,
00000000
00001001
00000000
00000220
00000000
00000000
00000000
00000330
,
00002002
00000000
00000000
00000000
00000003
00000000
00000000
00003020
,
00000000
00000000
00000000
00000000
,
00020030
00000000
00002000
00033000
,
00011000
00000000
00000000
00001000
00010000
01000000
00100000
00010000
,
10000000
01000000
00000000
01000000
00000000
01000000
01000000
00100000
,
00010000
01000000
00000000
00001000
00000000
01000000
00100000
00010000
,
00001000
00000100
00000100
00000010
00001000
00000001
00000001
00001000
,
00001100
00000000
00000000
00000000
00000011
00000000
00000000
00000000
00001100
00000000
00000000
00000100
00001000
00000000
00000100
00000000
,
00001000
00000010
00000100
00001000
00010000
00001000
00000100
00000010
,
00010000
00001000
00000010
00000100
00001000
00000001
00000100
00001000
,
00010000
00100000
01000000
00010000
00100000
10000000
00010000
01000000
,
10000000
00010000
01000000
00100000
00010000
10000000
01000000
00010000
,
10000000
00010000
10000000
00010000
01000000
00100000
01000000
00100000
,
10000000
01000000
00010000
00001000
00000010
00000001
00000100
00000000
,
00000010
00000010
00000100
00000100
00000001
00000010
00000100
00001000
,
00002002
00000000
00000000
00000000
,
00003003
00000000
00000000
00000000
,
00000001
00000100
00000010
00010000
00000010
00001000
00000001
00000010
,
00000100
00001000
00000001
00000010
00000100
00000010
00001000
00010000
,
01000000
10000000
00010000
00000000
01000000
00100000
10000000
11000000
,
00000000
01100000
00000000
00110000
00000000
00101000
00001000
00100000
,
00001000
00000000
00010000
00000000
00000100
00001000
00000100
00000000
00001000
00000000
00000001
00000000
00000010
00000001
00000010
00000000
,
00000001
00000000
00001000
00000000
00000010
00001000
00000010
00000000
00010000
00000000
00001000
00000000
00010000
00001000
00010000
00000000
,
00001000
00100000
00010000
01000000
00100000
10000000
01000000
01100000
,
00000000
10010000
00000000
01010000
00000000
10100000
00000000
10000000
,
00020000
00000000
00000000
00000000
00000000
00000000
00030000
01000000
,
00001000
00000000
00000000
00010000
00000000
00000000
00001000
00000000
00000000
00010000
00000000
00000000
00000100
00000000
00000010
00000000
,
00000001
00000000
00000100
00000000
00001000
00000000
00000110
00000000
00000000
00000000
00000000
00000000
;
