#TITLE:桜;
#SUBTITLE:;
#ARTIST:RevenG;
#TITLETRANSLIT:SAKURA;
#SUBTITLETRANSLIT:;
#ARTISTTRANSLIT:;
#GENRE:;
#CREDIT:;
#MUSIC:SAKURA.mp3;
#BANNER:SAKURA.png;
#BACKGROUND:SAKURA-bg.png;
#CDTITLE:./CDTITLES/BEATMANIA IIDX.PNG;
#SAMPLESTART:19.320;
#SAMPLELENGTH:12.000;
#SELECTABLE:YES;
#OFFSET:-0.129;
#BPMS:0.000=300.000
,80.000=300.100
,192.000=150.000
,202.000=135.000
,203.000=128.000
,204.000=117.000
,205.000=89.000
,205.500=86.000
,206.000=60.670
,207.000=20.670
,207.063=21.000
,207.500=17.310
,207.708=22.600
,207.833=23.000
,207.875=23.850
,208.000=150.000
,240.000=80.000
,241.000=160.000
,242.000=320.000
,242.500=322.000
,243.500=320.000
,404.000=310.000
,405.000=305.000
,406.000=270.000
,408.000=250.000
,410.000=217.000
,411.000=184.000
,411.500=158.000
,412.000=140.000
,413.000=139.000
,414.000=97.000
,414.500=82.000
;
#STOPS:;
#DISPLAYBPM:14.000:300.000;
#BGCHANGES:;
#FGCHANGES:;

//--------------- dance-single - HellKiteChaos ----------------
#NOTES:
     dance-single:
     HellKiteChaos:
     Hard:
     15:
     0,0,0,0,0:
0000
0000
0000
0000
,
0000
0000
0000
0000
,
0000
0000
0000
0000
,
0000
0000
0000
0000
,
0000
0000
0000
0000
,
0000
0000
0000
0000
,
0000
0000
0000
0000
,
0000
0000
0000
0000
,
1000
0000
0001
0100
0000
0000
0200
0000
,
0010
0000
0010
0000
0310
0000
0010
1000
,
0001
0000
0001
0010
0000
0000
0020
0000
,
0100
0000
0100
0000
0130
0000
0100
1000
,
0001
0000
0001
0100
0000
0000
0200
0000
,
0010
0010
0310
0100
,
0101
0000
0000
1010
0000
0000
0101
0000
,
0001
0100
0001
0100
0010
1000
0010
1000
,
0001
0100
0010
0100
,
0001
0010
0100
0010
,
0001
0100
1000
0100
,
0002
0000
0000
0003
,
1000
0100
0000
0000
1000
0001
0000
0000
,
1000
0010
0000
0000
1000
0001
0000
0000
,
1000
0100
0000
0000
0010
0000
0001
0000
,
0100
0000
0100
0010
0100
0000
0001
0000
,
1000
0000
0001
0100
0001
0000
1000
0100
,
1000
0000
0010
1000
0100
0000
1000
0000
,
0001
0000
1000
0100
1000
0000
0001
0100
,
0001
0000
0010
0001
0100
0000
0001
0000
,
1000
0000
0100
1000
0100
0000
0010
0100
,
0010
0000
0001
0010
0001
0000
0010
0100
,
0010
0000
0100
1000
0100
0000
1000
0000
,
0001
0100
0010
1000
,
0001
0000
1000
0100
1000
0000
0001
0010
,
0001
0000
0100
0001
0010
0000
0100
0000
,
1000
0000
0001
0010
0001
0000
1000
0010
,
1000
0000
0100
1000
0010
0000
0100
0000
,
0001
0000
0100
0001
0100
0000
0010
0100
,
0010
0000
1000
0010
1000
0000
0010
0100
,
0010
0000
0100
0001
0100
0000
0001
0000
,
1000
0010
0010
0010
,
0100
0000
0001
0100
0001
0000
1000
0000
,
0001
0000
1000
0100
1000
0000
0001
0000
,
1000
0000
0010
1000
0010
0000
1000
0000
,
0001
0000
0010
0001
0010
0000
0100
0000
,
1000
0100
1100
0000
,
0010
0001
0011
0000
,
0010
0100
1000
0001
,
0100
0010
0100
0010
1000
0001
1000
0001
,
0100
0010
0100
0010
1000
0001
1000
0000
,
0100
0010
0100
0010
0001
1000
0001
0000
,
0100
0010
1000
0000
0100
0010
0001
0000
,
1000
0000
0000
0000
0000
0000
0000
0000
0000
0000
0000
0000
0100
0000
0000
0000
0000
0000
0000
0000
0000
0000
0000
0000
1000
0000
0000
0000
0000
0000
0000
0000
0000
0000
0000
0000
0100
0000
0000
0000
0000
0000
0000
0000
0000
0000
0000
0000
0010
0000
0000
0000
0000
0000
0000
0000
0000
0000
0000
0000
0000
0000
0000
0000
0000
0000
0000
0000
0000
0000
0001
0000
0000
0000
0000
0000
0000
0000
0000
0000
0000
0000
0000
0000
0000
0000
0000
0000
0000
0000
0000
0000
0000
0000
0000
0000
2000
0000
0000
0000
0000
0000
0000
0000
0000
0000
0000
0000
0000
0000
0000
0000
0000
0000
0000
0000
0000
0000
0000
0000
0000
0000
0000
0000
0000
0000
0000
0000
0000
0000
0000
0000
0000
0000
0000
0000
0000
0000
0000
0000
0000
0000
0000
0000
3000
0000
0000
0000
0000
0020
0000
0000
0000
0000
0000
0000
0000
0000
0000
0000
0000
0000
0000
0000
0000
0000
0000
0000
0000
0000
0000
0000
0000
0000
0000
0000
0000
0000
0000
0000
0000
0000
0000
0000
0000
0000
0000
0000
0000
0000
0000
0000
,
0130
0000
0000
0100
0001
0000
0000
0001
1000
0000
0000
1000
0100
0000
0000
0100
,
0010
0000
0100
0000
0010
0000
0001
1000
0001
0000
0100
0000
0110
0000
0000
0000
,
1001
0000
0000
0001
0100
0000
0000
0100
0010
0000
0000
0010
1000
0000
0000
1000
,
0001
0000
1000
0000
0100
0000
0010
0100
0010
0000
0001
0000
1001
0000
0000
0000
,
0001
0000
0000
0100
0010
0000
0000
0100
0001
0000
0000
0100
0010
0000
0000
1000
,
0100
0000
0000
0010
0100
0000
0000
1000
0100
0000
0000
0010
0001
0000
0000
1000
,
0010
0000
0100
0000
0001
0000
0000
1000
0100
0000
0010
0000
0001
0000
0000
1000
,
0010
0100
0001
1000
0100
0010
0001
1000
,
0000
0000
0000
0000
,
0001
0000
0010
0000
0100
1000
0100
1000
,
0100
0000
1000
0000
0010
0100
0001
0100
,
0001
0000
1000
0000
0100
0010
0001
0010
,
0001
0000
0100
0000
0010
1000
0010
1000
,
0001
0000
1000
0000
0100
0010
0100
0010
,
0001
0000
1000
0000
0010
0100
0001
1000
,
0001
0000
0010
0000
0100
1000
0001
1000
,
0001
0100
0010
1000
0001
1000
0001
0010
,
0100
0000
1000
0001
1000
0000
0001
0000
,
1000
0000
0010
1000
0001
0000
1000
0000
,
0001
0000
0100
0001
1000
0000
0001
0000
,
1000
0000
0100
1000
0001
0000
0100
0000
,
0010
1000
0010
0000
1000
0000
0010
0000
,
0100
0001
0100
0000
0001
0000
0100
0000
,
0001
1000
0001
0000
1000
0001
1000
0000
,
0001
0010
0100
1000
0001
0100
0010
1000
,
0001
1000
0001
0000
0000
0000
0001
1000
,
0100
1000
0010
1000
,
0010
0100
0001
0000
0000
0000
0100
0001
,
0010
0001
0010
0001
,
1000
0000
0010
1000
0010
0000
0100
0010
,
0100
0000
0001
0100
0001
0000
0100
0010
,
0100
0000
0010
1000
0010
0000
1000
0000
,
0001
1000
1000
1000
,
0001
0010
0001
0000
0000
0000
0010
0001
,
0100
0001
0100
0001
,
1000
0010
1000
0000
0000
0000
0010
1000
,
0100
1000
0100
1000
,
0001
0000
1000
0100
1000
0000
0100
0010
,
0100
0000
0010
0001
0010
0000
0100
0010
,
0100
0010
0100
1000
,
0010
0100
0001
0010
,
0100
0000
1000
0100
1000
0000
0001
0010
,
0001
0000
1000
0100
1000
0000
0001
0010
,
0001
0000
1000
0010
1000
0000
0001
0100
,
0001
0000
1000
0010
1000
0000
0001
0100
,
0010
1000
0001
0000
1000
0100
0010
0001
,
1000
0000
0010
0100
0001
0010
0100
0000
,
1100
0000
0000
1100
0000
0000
1000
0001
,
0010
0000
0000
0011
0000
0000
0011
0000
,
0001
0010
0001
0010
0100
1000
0100
1000
,
0010
0100
0010
0100
0001
1000
0001
1000
,
0001
0100
1000
0100
0001
1000
0002
0000
,
0000
0003
0000
0000
;

//--------------- dance-single - HellKiteChaos ----------------
#NOTES:
     dance-single:
     HellKiteChaos:
     Challenge:
     18:
     0,0,0,0,0:
0000
0000
0000
0000
,
0000
0000
0000
0000
,
0000
0000
0000
0000
,
0000
0000
0000
0000
,
0000
0000
0000
0000
,
0000
0000
0000
0000
,
0000
0000
0000
0000
,
0000
0000
0000
0000
,
0001
0000
1000
0100
0000
1000
0100
0000
,
0010
0001
1000
0001
0100
0010
1000
0001
,
1000
0000
0001
0100
0000
0001
0100
0000
,
0010
1000
0001
1000
0100
0010
0001
0100
,
0010
0000
1000
0100
0000
0010
0001
0000
,
1000
0001
0100
0010
1000
0100
0010
0001
,
0011
0000
0000
0110
0000
0000
1100
0000
,
0100
1000
0010
0100
0001
0010
0100
1000
,
1001
0100
0010
1000
,
1001
0100
0010
0001
,
1001
0100
0010
1000
,
1001
0000
0000
0000
,
0001
0000
0010
0100
1000
0000
0010
0100
,
0001
0000
1000
0100
0010
0000
0001
0100
,
1000
0000
0100
0001
0010
0000
0100
0000
,
0110
0000
0010
0100
0010
0000
1001
0000
,
0001
0000
0000
0000
0000
0000
1000
0000
0001
0000
1000
0000
0010
0000
0000
0100
0000
0000
0001
0000
0000
1000
0000
0000
,
0001
0000
0000
0000
0000
0000
1000
0000
0001
0000
1000
0000
0100
0000
0000
0010
0000
0000
0001
0000
0000
0100
0000
0000
,
0010
0000
0000
0000
0000
0000
0100
0000
0010
0000
0100
0000
0001
0000
0000
1000
0000
0000
0100
0000
0000
0010
0000
0000
,
0001
0000
0000
0000
0000
0000
0010
0000
0100
0000
0010
0000
0100
0000
0000
1000
0000
0000
0010
0000
0000
0100
0000
0000
,
0001
0000
0000
0100
0010
0100
0010
0000
0000
1000
0100
1000
,
0100
0000
0000
0010
0001
0010
0001
0000
0000
0100
0010
0100
,
0010
0000
1000
0100
0010
0100
1000
0001
,
1000
0000
0010
0100
0001
0000
0101
0000
,
1010
0000
1000
0100
1000
0010
0100
0001
,
0010
0100
0010
0100
1000
0000
0010
0000
,
0100
0000
0001
0010
0001
0100
1000
0100
,
1000
0100
0001
0010
0001
0000
0100
0000
,
0010
0000
0000
1000
0100
1000
0100
0000
0000
0010
0001
0010
,
0001
0000
0000
0100
0010
0100
0010
0000
0000
1000
0001
1000
,
0001
0000
0000
0000
0000
0000
0010
0000
0100
0000
0010
0000
0100
0000
0000
1000
0000
0000
0001
0000
0000
1000
0000
0000
,
0001
0101
0101
0101
,
0100
0010
1000
0010
0100
0001
0100
0001
,
1000
0010
0100
0001
0010
0001
0100
0010
,
1000
0100
1000
0010
1000
0010
0100
0001
,
0010
0001
0100
0001
0020
0000
0000
0000
,
0130
1000
0100
1000
0010
0100
0001
0000
,
0100
0001
0100
0001
0010
0100
1000
0000
,
1010
1100
0101
0011
,
0010
0100
1000
0010
0100
0001
0010
0100
,
1000
0100
1000
0000
0001
0000
0100
0000
0010
1000
0010
0000
1000
0000
0001
0000
,
0010
0001
0010
0000
0100
0000
1000
0000
0001
0100
0001
0000
1000
0000
0010
0000
,
0100
0010
0100
0000
0001
0000
1000
0000
0100
0010
0100
0000
0010
0000
0001
0000
,
1000
0000
0000
0000
0000
0000
0000
0000
0000
0000
0000
0000
0010
0000
0000
0000
0000
0000
0000
0000
0000
0000
0000
0000
0100
0000
0000
0000
0000
0000
0000
0000
0000
0000
0000
0000
0001
0000
0000
0000
0000
0000
0000
0000
0000
0000
0000
0000
0010
0000
0000
0000
0000
0000
0000
0000
0000
0000
0000
0000
0000
0000
0000
0000
0000
0000
0000
0000
0000
0000
0000
0000
0100
0000
0000
0000
0000
0000
0000
0000
0000
0000
0000
0000
0000
0000
0000
0000
0000
0000
0000
0000
0000
0000
0000
0000
1000
0000
0000
0000
0000
0000
0000
0000
0000
0000
0000
0000
0000
0000
0000
0000
0000
0000
0000
0000
0000
0000
0000
0000
0000
0000
0000
0000
0000
0000
0000
0000
0000
0000
0000
0000
0000
0000
0000
0000
0000
0000
0000
0000
0000
0000
0000
0000
0000
0000
0000
0000
0000
0010
0000
0000
0000
0000
0000
0000
0000
0000
0000
0000
0000
0000
0000
0000
0000
0000
0000
0000
0000
0000
0000
0000
0000
0000
0000
0000
0000
0000
0000
0000
0000
0000
0000
0000
0000
0000
0000
0000
0000
0000
0000
0000
,
0100
0001
0100
0010
0100
1000
0100
0001
,
1000
0000
0001
1000
0100
0000
1000
0001
0010
0000
0100
0000
0110
0000
0010
0000
,
1001
0100
1000
0100
0010
0100
0001
0010
,
0100
0000
1000
0010
0100
0000
0001
1000
0100
0000
0010
0000
1001
0000
1001
0000
,
0001
0000
1000
0100
1000
0000
1000
0001
1000
0000
1000
0010
1000
0000
0001
0000
,
1000
0000
0001
0100
0001
0000
0001
1000
0001
0000
0001
0010
0001
0000
1000
0000
,
0100
0000
0010
0001
0100
0000
0010
1000
0100
0000
0010
0001
0100
0000
0010
1000
,
0100
0000
0010
0001
0100
0000
0010
1000
0100
0000
0100
0000
0100
0000
0100
0000
,
0000
0000
0000
0000
,
0010
0100
0010
0001
1000
0001
0100
0010
,
1000
0000
0000
0001
0000
0000
0100
0000
0000
0010
0000
0000
1000
0000
0001
0000
1000
0000
0001
0000
1000
0000
0001
0000
,
1000
0100
0010
0001
0100
0010
1000
0001
,
0010
0000
0000
0100
0000
0000
0010
0000
0000
0100
0000
0000
1000
0000
0100
0000
1000
0000
0100
0000
1000
0000
0100
0000
,
1000
0001
0100
0010
1000
0100
0010
0001
,
1000
0000
0000
0010
0000
0000
0100
0000
0000
0001
0000
0000
0010
0000
0100
0000
0010
0000
0100
0000
0010
0000
0100
0000
,
1000
0001
1000
0100
1000
0001
1000
0010
,
0100
0000
0000
0001
0000
0000
0010
0000
0000
0100
0000
0000
1000
0000
0001
0000
1000
0000
0001
0000
1000
0000
0001
0000
,
1000
0100
0010
0001
0100
0010
0100
0001
,
0100
0010
1000
0100
0010
0001
0010
0100
,
0010
0001
1000
0010
0100
0010
1000
0001
,
0100
0010
1000
0001
0010
0100
1000
0001
,
1000
0000
0100
0000
0010
0000
0001
0000
0000
1000
0000
0000
0001
0000
0000
1000
0000
0000
0001
0000
0000
1000
0000
0000
,
0001
0000
0100
0000
0010
0000
1000
0000
0000
0001
0000
0000
1000
0000
0000
0001
0000
0000
1000
0000
0000
0001
0000
0000
,
1000
0000
0100
0000
1000
0000
0100
0000
0000
0010
0000
0000
0001
0000
0010
0000
0001
0000
0010
0000
0000
0100
0000
0000
,
1000
0000
0001
0000
1000
0000
0001
0000
0000
0100
0000
0000
0010
0000
0100
0000
0010
0000
0100
0000
0000
0001
0000
0000
,
1000
0001
2000
0000
0000
0000
3100
0001
,
0100
1000
0001
0100
,
0010
0100
0020
0000
0000
0000
0031
0010
,
0001
0010
1000
0100
,
0010
0000
0000
0001
0010
0001
0010
0000
0000
0010
0100
0010
,
0100
0000
0000
0100
1000
0100
1000
0000
0000
0001
1000
0001
,
1000
0010
0100
0001
,
1001
0100
0100
0100
,
0010
1000
0001
0100
0010
1000
0001
0100
0010
1000
0001
1000
,
0100
0010
0010
0010
,
0001
1000
0100
0000
0010
0000
0100
0010
,
0001
1000
0001
0000
0001
0000
0001
0000
,
1000
0100
1000
0000
1100
0000
0100
0000
,
0010
0001
0010
0000
0011
0000
0001
0000
,
0101
1001
1010
1001
,
1100
1001
0011
0110
,
1000
0100
0001
0100
1000
0010
1000
0100
,
0001
0100
1000
0010
0001
0010
1000
0100
,
0010
0100
1000
0010
0001
0010
1000
0100
,
0010
0100
1000
0010
0100
0001
0100
0010
,
1000
0000
0001
0000
1000
0000
0001
0000
0000
0010
0000
0000
0100
0000
0000
1000
0000
0000
0010
0000
0000
0100
0000
0000
,
0010
0000
0100
0000
0010
0000
0100
0000
0000
0001
0000
0000
1000
0000
0000
0100
0000
0000
0010
0000
0000
0001
0000
0000
,
1001
0000
0000
0101
0000
0000
0010
1000
,
1001
0000
0000
0110
0000
0000
1001
0000
,
0001
0010
1000
0010
0001
0100
1000
0100
,
0001
0010
0100
1000
0010
0100
0001
1000
,
0100
0010
0001
1000
0001
0100
0220
0000
,
0000
0330
0000
0000
;

//--------------- dance-double - HellKiteChaos ----------------
#NOTES:
     dance-double:
     HellKiteChaos:
     Challenge:
     15:
     0,0,0,0,0:
00000000
00000000
00000000
00000000
,
00000000
00000000
00000000
00000000
,
00000000
00000000
00000000
00000000
,
00000000
00000000
00000000
00000000
,
00000000
00000000
00000000
00000000
,
00000000
00000000
00000000
00000000
,
00000000
00000000
00000000
00000000
,
00000000
00000000
00000000
00000000
,
00001000
00000000
00010000
00000100
00000000
00000000
00000020
00000000
,
00000001
00000000
00000001
00000000
00000031
00000000
00001000
00000100
,
00000010
00000000
00000001
00000100
00000000
00000000
00000020
00000000
,
00010000
00000000
00010000
00000000
00010030
00000000
00001000
01000000
,
00100000
00000000
10000000
01000000
00000000
00000000
00200000
00000000
,
00010000
00000000
00010000
00000000
00310000
00000000
10000000
01000000
,
00100000
00000000
00000000
00110000
00000000
00000000
00101000
00000000
,
00100000
00001000
00010000
00001000
00010000
00000100
00001000
00000100
,
00001000
00000100
00000010
00000001
,
00000100
00001000
00010000
00100000
,
10000000
01000000
00100000
00010000
,
20020000
00000000
00000000
30030000
,
10000000
00100000
00000000
00000000
00100000
01000000
00000000
00000000
,
01000000
00010000
00000000
00000000
00010000
00100000
00000000
00000000
,
01000000
10000000
00010000
01000000
,
00001000
00000000
00010000
00001000
00010000
00000000
00011000
00000000
,
00001000
00000000
00100000
00010000
00100000
00010000
00100000
00001000
,
00010000
00000000
00000010
00001000
00000010
00001000
00000010
00010000
,
00001000
00000000
01000000
00010000
01000000
00010000
01000000
00001000
,
00010000
00000000
00000100
00001000
00000100
00001000
00000100
00010000
,
00001000
00000000
00100000
00010000
00100000
00000000
01000000
10000000
,
01000000
00000000
10000000
00100000
10000000
00000000
00010000
01000000
,
00010000
00000000
10000000
00010000
10000000
00000000
00100000
00000000
,
01000000
00010000
10000000
00010000
,
10010000
00000000
10000000
01000000
10000000
01000000
10000000
01000000
,
00100000
00000000
00010000
00100000
00010000
00100000
00010000
00100000
,
00001000
00000000
00010000
00001000
00010000
00001000
00010000
00001000
,
00010000
00000000
00000010
00010000
00000010
00010000
00000010
00001000
,
00000100
00000000
00000010
00000001
00000010
00000000
00000100
00001000
,
00000100
00000000
00001000
00000010
00001000
00000000
00000001
00000100
,
00000001
00000000
00001000
00000001
00001000
00000000
00000010
00000000
,
00000100
00000110
00000110
00000101
,
00000100
00000001
00000100
00001000
,
00000100
00000000
00000010
00000100
00000010
00000000
00010000
00000000
,
00001000
00010000
01000000
00010000
,
00001000
00000000
00010000
00001000
00010000
00000000
01000000
00000000
,
10000000
00100000
10000000
00100000
,
01000000
00010000
01000000
00010000
,
10000000
00010000
00000000
10000000
00010000
00000000
10000000
00000000
,
01000000
00100000
01000000
00100000
00010000
10000000
00010000
10000000
,
00010000
01000000
10000000
01000000
00010000
00100000
01000000
00000000
,
00100000
01000000
00010000
00001000
00000010
00000100
00001000
00000000
,
00000001
00001000
00000001
00001000
00000010
00000100
00000001
00001000
,
00000001
00000000
00000000
00000000
00000000
00000000
00000000
00000000
00000000
00000000
00000000
00000000
00000010
00000000
00000000
00000000
00000000
00000000
00000000
00000000
00000000
00000000
00000000
00000000
00000001
00000000
00000000
00000000
00000000
00000000
00000000
00000000
00000000
00000000
00000000
00000000
00000010
00000000
00000000
00000000
00000000
00000000
00000000
00000000
00000000
00000000
00000000
00000000
00000100
00000000
00000000
00000000
00000000
00000000
00000000
00000000
00000000
00000000
00000000
00000000
00000000
00000000
00000000
00000000
00000000
00000000
00000000
00000000
00000000
00000000
00001000
00000000
00000000
00000000
00000000
00000000
00000000
00000000
00000000
00000000
00000000
00000000
00000000
00000000
00000000
00000000
00000000
00000000
00000000
00000000
00000000
00000000
00000000
00000000
00000000
00000000
00000002
00000000
00000000
00000000
00000000
00000000
00000000
00000000
00000000
00000000
00000000
00000000
00000000
00000000
00000000
00000000
00000000
00000000
00000000
00000000
00000000
00000000
00000000
00000000
00000000
00000000
00000000
00000000
00000000
00000000
00000000
00000000
00000000
00000000
00000000
00000000
00000000
00000000
00000000
00000000
00000000
00000000
00000000
00000000
00000000
00000000
00000000
00000000
00000003
00000000
00000000
00000000
00000000
00000020
00000000
00000000
00000000
00000000
00000000
00000000
00000000
00000000
00000000
00000000
00000000
00000000
00000000
00000000
00000000
00000000
00000000
00000000
00000000
00000000
00000000
00000000
00000000
00000000
00000000
00000000
00000000
00000000
00000000
00000000
00000000
00000000
00000000
00000000
00000000
00000000
00000000
00000000
00000000
00000000
00000000
00000000
,
00000130
00000000
00001000
00000000
00000100
00000000
00000010
00000000
00000100
00000000
00010000
00000000
00001000
00000000
00010000
00001000
,
01000000
00000000
00010000
01000000
00001000
00000000
00010000
00001000
01000000
00000000
00100000
00000000
10000000
00000000
01000000
00000000
,
11000000
00000000
10000000
00000000
00010000
00000000
00100000
00000000
00001000
00000000
00010000
00000000
00000010
00000000
00001000
00000010
,
00010000
00000000
00001000
00010000
00000010
00000000
00001000
00000010
00010000
00000000
00001000
00000000
00011000
00000000
00000000
00000000
,
00001000
00100000
01000000
00100000
00001000
00100000
01000000
00100000
,
00001000
00000100
00001000
00010000
00001000
00000100
00001000
00010000
,
00001000
01000000
00100000
01000000
00001000
01000000
00100000
01000000
,
00010000
10000000
01000000
00010000
00001000
00000010
00000001
00000100
,
00000000
00000000
00000000
00000000
,
00000001
00000000
00000100
00000000
00000010
00001000
00000010
00001000
,
00000010
00000000
00001000
00000000
00000100
00010000
00000100
00010000
,
00000100
00000000
00010000
00000000
00001000
00010000
00001000
00010000
,
00001000
00000000
01000000
00000000
00100000
10000000
00100000
10000000
,
00100000
00000000
10000000
00000000
00100000
10000000
00010000
10000000
,
01000000
00000000
00100000
00000000
00010000
00100000
00001000
00100000
,
00001000
00000000
00010000
00000000
00000010
00001000
00000010
00001000
,
00000001
00000100
00000001
00000100
00000010
00001000
00000001
00000100
,
00000010
00000000
00000100
00000000
00000010
00001000
00000010
00000000
,
00000100
00000000
00000001
00000000
00000100
00000010
00000100
00000000
,
00000001
00000000
00001000
00000000
00000100
00010000
00000100
00000000
,
00010000
00000000
00001000
00000000
00010000
00001000
00010000
00001000
,
00100000
00010000
00100000
00000000
01000000
00000000
00100000
00000000
,
01000000
00100000
01000000
00000000
00100000
00000000
01000000
00000000
,
10000000
00010000
10000000
00000000
00010000
10000000
00010000
00000000
,
10000000
01000000
00100000
00010000
01000000
00100000
10000000
00010000
,
01000000
00010000
01000000
00000000
00000000
00000000
00100000
01000000
,
00010000
01000000
00001000
00010000
,
00000010
00001000
00000100
00000000
00000000
00000000
00000010
00000001
,
00001000
00000001
00000100
00000010
,
00001000
00000010
00001000
00000000
00000000
00000000
00000010
00001000
,
00000010
00010000
00001000
00010000
,
01000000
01000000
00100000
00100000
,
00010000
01000000
00001000
00010000
,
00000100
00001000
00000010
00000000
00000000
00000000
00000100
00000010
,
00000100
00000001
00000010
00000001
,
00000100
00000010
00000100
00000000
00000000
00000000
00000010
00001000
,
00000100
00001000
00000010
00010000
,
00001000
00001000
00010000
00010000
,
00001000
00001000
01000000
01000000
,
00100000
10000000
01000000
00010000
,
00001000
00000010
00000001
00001000
,
00000010
00000000
00001000
00000010
00001000
00000000
00000001
00000100
,
00000001
00000000
00001000
00000010
00001000
00000000
00000001
00000000
,
00000100
00000000
00000010
00010000
00000010
00000000
00010000
00001000
,
00010000
00000000
00001000
01000000
00001000
00000000
01000000
00000000
,
00100000
00000000
10000000
00100000
10000000
00000000
00010000
01000000
,
00010000
00000000
10000000
01000000
10000000
00000000
01000000
00000000
,
00110000
00000000
00000000
11000000
00000000
00000000
00100000
00010000
,
01000000
00000000
00000000
01010000
00000000
00000000
10100000
00000000
,
10000000
00100000
10000000
00100000
01000000
00001000
01000000
00001000
,
00010000
00001000
00010000
00001000
00000100
00000010
00001000
00000100
,
00000010
00000001
00000100
00001000
00010000
00100000
20000000
00000000
,
00000000
30000000
00000000
00000000
;
