#TITLE:RHYTHM AND POLICE (K.O.G G3 Mix);
#SUBTITLE:;
#ARTIST:CJ CREW feat. CHRISTIAN D;
#TITLETRANSLIT:;
#SUBTITLETRANSLIT:;
#ARTISTTRANSLIT:;
#GENRE:;
#CREDIT:;
#MUSIC:RHYTHM AND POLICE (K.O.G G3 Mix).mp3;
#BANNER:RHYTHM AND POLICE (K.O.G G3 Mix).png;
#BACKGROUND:RHYTHM AND POLICE (K.O.G G3 Mix)-bg.png;
#CDTITLE:;
#SAMPLESTART:0.000;
#SAMPLELENGTH:0.000;
#SELECTABLE:YES;
#OFFSET:-0.664;
#BPMS:0.000=170.000;
#STOPS:;
#DISPLAYBPM:170.000;
#BGCHANGES:;
#FGCHANGES:;

//--------------- dance-single - HellKiteChaos ----------------
#NOTES:
     dance-single:
     HellKiteChaos:
     Challenge:
     14:
     0,0,0,0,0:
0000
0000
0000
0000
,
0000
0000
0000
0000
,
0000
0000
0000
0000
,
0000
0000
0000
0000
,
0201
0000
0000
0310
0000
1000
0000
0001
,
0100
0001
0010
0001
0100
0001
1000
0100
,
0012
0000
0000
0103
0000
0010
0000
1000
,
0100
0001
0100
1000
0010
0100
0010
0100
,
0201
0000
0000
0310
0000
0100
0000
0001
,
0100
1000
0100
0010
0100
0010
1000
0100
,
1200
0000
0000
0310
0000
0100
0000
0010
,
0001
1000
0100
0010
0100
1000
1001
0000
,
0001
1000
0001
0100
0010
0100
0001
1000
0001
0010
0100
0010
,
0001
0000
0001
0100
0000
0100
0010
0000
0010
1000
0000
1000
,
0001
0000
0000
0101
0000
0000
0100
0010
0100
0001
0100
0010
,
1000
0000
0000
1100
0000
0000
0100
0010
0001
0010
0100
1000
,
0001
0100
0010
0100
0001
1000
0100
0010
0100
1000
0001
0100
,
0010
0000
1000
0001
0000
0100
0010
0000
1000
0100
0000
0010
,
0001
0100
0001
0100
0000
0010
1000
0010
1000
0001
0000
1000
,
0100
0000
0100
0000
0100
0000
0010
0001
0000
1000
0100
0000
0000
0000
0000
0000
,
0010
0000
0001
0000
1000
0000
0100
0000
0010
0000
0001
1000
0001
1000
0001
0000
,
0100
0000
0010
0000
1000
0000
0001
0000
0100
0000
0010
0100
0010
0100
0010
0000
,
1000
0000
0001
0000
0010
0000
0100
0000
1000
0000
0001
0100
0001
0100
0001
0000
,
1000
0000
0001
0000
0100
0000
0010
0000
1000
0000
0001
0010
0001
0010
0001
0000
,
1000
0000
0100
0000
0010
0000
0001
0000
0100
0000
0010
1000
0010
1000
0010
0000
,
0100
0000
0001
0000
1000
0000
0010
0000
1000
0000
0100
1000
0100
1000
0100
0000
,
0010
0000
0001
0000
1000
0000
0100
0000
0010
0000
0001
1000
0001
1000
0001
0000
,
0100
0000
0010
0000
0100
0000
0010
0100
0000
0010
0100
0000
0000
0000
0000
0000
,
0001
0100
0010
0100
0001
1000
0100
0100
,
0010
0001
1000
0001
0010
0100
1000
0000
,
0011
0000
0101
0000
0010
1000
0001
0100
,
0010
0000
0000
0000
0100
0100
0100
0000
,
1001
1000
0100
0001
0100
1000
0010
0000
,
1001
0001
0100
1000
0100
0001
0010
0000
,
1100
0000
0011
0001
0100
0010
1000
0000
,
0004
0000
0000
0003
,
0000
2100
0000
3001
0000
0201
0000
0310
,
0000
2010
0000
3001
0000
0012
0000
0103
,
0000
2001
0000
3100
0000
0120
0000
0031
,
0100
0000
0000
0000
0010
0010
0010
0000
,
0100
0001
0010
0001
0100
0010
1000
0100
,
1000
0010
0100
0001
0010
0001
0100
0010
,
1000
0100
0001
0100
1000
0100
0001
0100
,
0010
0000
0100
0000
0010
0000
0001
1000
0000
0001
1000
0000
0001
0000
0000
0000
,
0000
0000
0100
0010
0110
0000
2001
0000
,
3010
0000
1000
0000
0001
0000
0010
0000
0100
0000
1000
0001
1000
0001
1000
0000
,
0010
0000
0100
0000
0001
0000
1000
0000
0010
0000
0100
0010
0100
0010
0100
0000
,
0001
0000
1000
0000
0100
0000
0010
0000
0001
0000
1000
0010
1000
0010
1000
0000
,
0001
0000
1000
0000
0010
0000
0100
0000
0001
0000
1000
0100
1000
0100
1000
0000
,
0001
0000
0010
0000
0100
0000
1000
0000
0010
0000
0100
0001
0100
0001
0100
0000
,
0010
0000
1000
0000
0001
0000
0100
0000
0001
0000
0010
0001
0010
0001
0010
0000
,
0100
0000
1000
0000
0001
0000
0010
0000
0100
0000
1000
0001
1000
0001
1000
0000
,
0010
0000
0100
0000
0010
0000
0100
0010
0000
0100
0010
0000
0000
0000
0000
0000
,
1000
0001
1000
0010
0100
0010
1000
0001
1000
0100
0010
0100
,
1000
0000
1000
0010
0000
0010
0100
0000
0100
0001
0000
0001
,
1000
0000
0000
1010
0000
0000
0010
0100
0010
1000
0010
0100
,
0001
0000
0000
0011
0000
0000
0010
0100
1000
0100
0010
0001
,
1000
0010
0100
0010
1000
0001
0010
0100
0010
0001
1000
0010
,
0100
0000
0001
1000
0000
0010
0100
0000
0001
0010
0000
0100
,
1000
0010
0100
0010
0000
0100
0001
0010
0001
1000
0000
0001
,
0010
0000
0010
0000
0010
0000
0100
1000
0000
0001
0010
0000
0000
0000
0000
0000
,
0100
0000
0100
0000
0100
0000
1000
0100
0000
0010
0001
0000
0000
0000
0000
0000
,
1000
0000
0001
0000
1000
0000
0001
0100
0000
1000
0100
0000
0000
0000
0011
0000
,
2002
0000
3003
0000
;

//--------------- dance-double - HellKiteChaos ----------------
#NOTES:
     dance-double:
     HellKiteChaos:
     Challenge:
     14:
     0,0,0,0,0:
00000000
00000000
00000000
00000000
,
00000000
00000000
00000000
00000000
,
00000000
00000000
00000000
00000000
,
00000000
00000000
00000000
00000000
,
00012000
00000000
00000000
00103000
00000000
01000000
00000000
00100000
,
00010000
01000000
00001000
00100000
00010000
01000000
00001000
00010000
,
00021000
00000000
00000000
00030100
00000000
00000010
00000000
00000100
,
00010000
00000010
00001000
00000100
00010000
00000010
00001000
00000100
,
00002100
00000000
00000000
00003001
00000000
00000100
00000000
00001000
,
00010000
00100000
10000000
00100000
00010000
00100000
10000000
00010000
,
20010000
00000000
00000000
30100000
00000000
01000000
00000000
00100000
,
10000000
00010000
01000000
00001000
00010000
00001000
00011000
00000000
,
00001000
00010000
00000010
00010000
00001000
00100000
00001000
00010000
00000100
00010000
00001000
01000000
,
00010000
00000000
00010000
10000000
00000000
10000000
00100000
00000000
00100000
01000000
00000000
01000000
,
00010000
00000000
00000000
01010000
00000000
00000000
01000000
00100000
01000000
00010000
01000000
00100000
,
10000000
00000000
00000000
11000000
00000000
00000000
01000000
00100000
00001000
00010000
00001000
00010000
,
00001000
01000000
00001000
00010000
00000100
00010000
00001000
00100000
00001000
00010000
00000010
00010000
,
00001000
00000000
00001000
00010000
00000000
00010000
00000100
00000000
00000100
00000010
00000000
00000010
,
00000001
00000010
00000001
00001000
00000000
00000100
00001000
00000100
00001000
00000001
00000000
00000100
,
00000010
00000000
00000010
00000000
00000010
00000000
00001000
00000001
00000000
00001000
00000001
00000000
00000000
00000000
00000000
00000000
,
00000001
00000000
00000010
00000000
00000100
00000000
00010000
00000000
00001000
00000000
00010000
00001000
00010000
00000000
00001000
00000000
,
01000000
00000000
00010000
00000000
10000000
00000000
00100000
00000000
10000000
00000000
00010000
10000000
00010000
00000000
10000000
00000000
,
01000000
00000000
00010000
00000000
00001000
00000000
00000010
00000000
00000100
00000000
00000010
00000100
00000010
00000000
00000001
00000000
,
00001000
00000000
00000010
00000000
00000100
00000000
00001000
00000000
00010000
00000000
00001000
00010000
00001000
00000000
00010000
00000000
,
00000100
00000000
00010000
00000000
00001000
00000000
01000000
00000000
00010000
00000000
00100000
01000000
00100000
00000000
00010000
00000000
,
10000000
00000000
00100000
00000000
01000000
00000000
00010000
00000000
10000000
00000000
00010000
10000000
00010000
00000000
10000000
00000000
,
00100000
00000000
00010000
00000000
00001000
00000000
00000100
00000000
00000001
00000000
00001000
00000001
00001000
00000000
00000010
00000000
,
00000100
00000000
00000100
00000000
00000100
00000000
00000010
00001000
00000000
00000001
00000100
00000000
00000000
00000000
00000000
00000000
,
00000010
00000100
00000010
00001000
00000010
00000010
00010000
00010000
,
00001000
00100000
00010000
01000000
00100000
10000000
01000000
00000000
,
00110000
00000000
01010000
00000000
00100000
10000000
00010000
01000000
,
00100000
00000000
00000000
00000000
01000000
01000000
01000000
00000000
,
00100000
01000000
00010000
00100000
10000000
00100000
00010000
01000000
,
00001000
00010000
00000010
00000100
00001000
00000100
00000001
00000000
,
00000101
00000000
00000011
00000000
00000100
00001000
00000010
00010000
,
00004000
00000000
00000000
00003000
,
00000000
00012000
00000000
01003000
00000000
00021000
00000000
00030100
,
00000000
00012000
00000000
00103000
00000000
00021000
00000000
00030010
,
00000000
00021000
00000000
00030200
00000000
02000300
00000000
03001000
,
00010000
00000000
00000000
00000000
00011000
00011000
00011000
00000000
,
00001000
00100000
01000000
00100000
00001000
00010000
00000100
00000010
,
00000100
00010000
00001000
00000100
00000010
00000100
00001000
00010000
,
00100000
01000000
00100000
00010000
00001000
00100000
01000000
00010000
,
00001000
00010000
00001000
01000000
00100000
10000000
10010000
00000000
,
00000000
00000000
00100000
01000000
01100000
00000000
10020000
00000000
,
10030000
00000000
01000000
00000000
00100000
00000000
00001000
00000000
00010000
00000000
00001000
00010000
00001000
00000000
00010000
00000000
,
00000010
00000000
00001000
00000000
00000001
00000000
00000100
00000000
00000001
00000000
00001000
00000001
00001000
00000000
00000001
00000000
,
00000010
00000000
00001000
00000000
00010000
00000000
01000000
00000000
00100000
00000000
01000000
00100000
01000000
00000000
10000000
00000000
,
00010000
00000000
01000000
00000000
00100000
00000000
00010000
00000000
00001000
00000000
00010000
00001000
00010000
00000000
00001000
00000000
,
00100000
00000000
00001000
00000000
00010000
00000000
00000010
00000000
00001000
00000000
00000100
00000010
00000100
00000000
00001000
00000000
,
00000001
00000000
00000100
00000000
00000010
00000000
00001000
00000000
00000001
00000000
00001000
00000001
00001000
00000000
00000001
00000000
,
00000100
00001000
00000100
00000010
00010000
00001000
01000000
00010000
,
00100000
00000000
01000000
00000000
00100000
00000000
00001000
00010000
00000000
00001000
00010000
00000000
00000000
00000000
00000000
00000000
,
00010000
00001000
01000000
00001000
00010000
00000100
00010000
00001000
00100000
00001000
00010000
00000010
,
00001000
00000000
00001000
00000001
00000000
00000001
00000100
00000000
00000100
00000010
00000000
00000010
,
00001000
00000000
00000000
00001010
00000000
00000000
00000010
00000100
00000010
00001000
00000010
00000100
,
00000001
00000000
00000000
00000011
00000000
00000000
00000010
00000100
00010000
00001000
00010000
00001000
,
00010000
00000010
00010000
00001000
00100000
00001000
00010000
00000100
00010000
00001000
01000000
00001000
,
00010000
00000000
00010000
00001000
00000000
00001000
00100000
00000000
00100000
01000000
00000000
01000000
,
10000000
01000000
10000000
00010000
00000000
00100000
00010000
00100000
00010000
10000000
00000000
00100000
,
01000000
00000000
01000000
00000000
01000000
00000000
00010000
10000000
00000000
00010000
10000000
00000000
00000000
00000000
00000000
00000000
,
00001000
00000000
00001000
00000000
00001000
00000000
00010000
00001000
00000000
00010000
00001000
00000000
00000000
00000000
00000000
00000000
,
00010000
00000000
00010000
00000000
00010000
00000000
00000010
00000100
00000000
00000010
00000100
00000000
00000000
00000000
00000110
00000000
,
00001001
00000000
00000000
00000000
;
