#TITLE:PUT YOUR FAITH IN ME;
#SUBTITLE:;
#ARTIST:UZI-LAY;
#TITLETRANSLIT:;
#SUBTITLETRANSLIT:;
#ARTISTTRANSLIT:;
#GENRE:;
#CREDIT:;
#MUSIC:PUT YOUR FAITH IN ME.mp3;
#BANNER:PUT YOUR FAITH IN ME.png;
#BACKGROUND:PUT YOUR FAITH IN ME-bg.png;
#CDTITLE:;
#SAMPLESTART:65.527;
#SAMPLELENGTH:12.500;
#SELECTABLE:YES;
#OFFSET:-0.036;
#BPMS:0.000=120.000;
#STOPS:;
#BGCHANGES:;
#FGCHANGES:;

//--------------- dance-single - HellKiteChaos ----------------
#NOTES:
     dance-single:
     HellKiteChaos:
     Challenge:
     11:
     0,0,0,0,0:
0000
0000
0000
0000
,
0000
0000
0000
0000
,
1000
0010
0200
0000
0301
0010
0200
0000
,
1300
0001
0200
0000
0000
0000
0310
0010
,
0110
0000
1001
0000
0001
0100
0010
0000
,
1000
0100
0010
0001
1000
0001
1000
0010
,
0100
0100
0001
0000
1000
1000
0010
0000
,
0100
0000
0000
0000
0000
0000
0000
0000
0000
0000
0000
0000
0001
0000
0000
0000
0000
0000
0000
0000
0000
0000
0000
0000
1000
0000
0000
0000
0000
0000
0000
0000
0000
0000
0000
0000
0100
0000
0000
0000
0000
0000
0000
0010
0000
0000
0000
0000
0100
0000
0000
0000
0000
0000
0000
0010
0000
0000
0000
0000
0100
0000
0000
0000
0000
0000
0000
0000
0000
0000
0000
0000
0110
0000
0000
0000
0000
0000
0000
0000
0000
0000
0000
0000
0001
0000
0000
0000
0000
0000
0000
0000
0000
0000
0000
0000
,
1001
1000
1100
0000
0010
0001
1000
0000
,
0010
0100
0010
0100
0001
1000
0001
0010
,
0100
1000
0100
0000
0010
0001
0010
0000
,
0100
0000
0000
0000
0000
0000
0000
0000
0000
0000
0000
0000
1000
0000
0000
0000
0000
0000
0000
0000
0000
0000
0000
0000
0001
0000
0000
0000
0000
0000
0000
0000
0000
0000
0000
0000
0100
0000
0000
0000
0000
0000
0000
0010
0000
0000
0000
0000
0100
0000
0000
0000
0000
0000
0000
0010
0000
0000
0000
0000
0100
0000
0000
0000
0000
0000
0000
0000
0000
0000
0000
0000
0001
0000
0000
0000
0000
0000
0000
0000
0000
0000
0000
0000
1000
0000
0000
0000
0000
0000
0000
0000
0000
0000
0000
0000
,
1001
1000
0100
0100
1000
0001
0101
0000
,
1000
0010
0010
1000
0001
0100
0101
0000
,
0001
0010
0010
0010
0001
1000
1100
0000
,
0010
0001
0100
1000
0010
0001
0101
0000
,
1000
0001
0010
0001
1000
0010
0110
0000
,
0010
1000
0010
0100
0001
0100
0101
0000
,
1000
0100
0010
0100
1000
0100
0101
0000
,
0001
0100
0010
0001
1000
0001
1001
0000
,
0001
0000
0100
0000
0001
0010
0100
0000
,
1000
0000
0000
0000
0000
0000
0000
0000
0000
0000
0000
0000
0000
0000
0000
0000
0000
0000
0000
0000
0000
0000
0000
0000
0001
0000
0000
0000
0000
0000
0000
0000
0000
0000
0000
0000
0000
0000
0000
0000
0000
0000
0000
0000
0000
0000
0000
0000
1000
0000
0000
0000
0000
0000
0000
0010
0000
0000
0000
0000
0100
0000
0000
0000
0000
0000
0000
0000
0000
0000
0000
0000
0001
0000
0000
0000
0000
0000
0000
0000
0000
0000
0000
0000
0000
0000
0000
0000
0000
0000
0000
0000
0000
0000
0000
0000
,
0001
0000
1000
0000
0010
0110
0110
0000
,
2002
0000
0000
3003
,
1000
0001
0001
0010
0010
0100
0110
0000
,
0100
1000
0001
0100
0010
1000
1001
0000
,
0100
0001
0100
0010
0010
1000
1001
0000
,
0001
0010
0100
1000
1000
0001
1001
1000
,
0000
0000
0010
0000
0100
0000
0000
0001
1000
0000
0100
0000
1100
0000
0000
0000
,
0001
0010
0001
1000
0100
0100
0101
0000
,
0010
0010
0010
0010
1000
0001
1001
0000
,
0100
0000
0000
0000
0000
0000
0000
0000
0000
0000
0000
0000
0100
0000
0000
0000
0000
0000
0000
0000
0000
0000
0000
0000
0010
0000
0000
0000
0000
0000
0000
0000
0000
0000
0000
0000
0000
0000
0000
0000
0000
0000
0000
0100
0000
0000
0000
0000
0010
0000
0000
0000
0000
0000
0000
0100
0000
0000
0000
0000
0010
0000
0000
0000
0000
0000
0000
0000
0000
0000
0000
0000
1000
0000
0000
0000
0000
0000
0000
0000
0000
0000
0000
0000
0001
0000
0000
0000
0000
0000
0000
0000
0000
0000
0000
0000
,
2002
0000
0000
3003
,
0110
0000
1001
0000
0001
0100
0010
0000
,
1000
0100
0010
0001
1000
0001
1000
0010
,
0100
0100
0001
0000
1000
1000
0010
0000
,
0100
0000
0000
0000
0000
0000
0000
0000
0000
0000
0000
0000
0001
0000
0000
0000
0000
0000
0000
0000
0000
0000
0000
0000
1000
0000
0000
0000
0000
0000
0000
0000
0000
0000
0000
0000
0100
0000
0000
0000
0000
0000
0000
0010
0000
0000
0000
0000
0100
0000
0000
0000
0000
0000
0000
0010
0000
0000
0000
0000
0100
0000
0000
0000
0000
0000
0000
0000
0000
0000
0000
0000
0110
0000
0000
0000
0000
0000
0000
0000
0000
0000
0000
0000
0001
0000
0000
0000
0000
0000
0000
0000
0000
0000
0000
0000
,
1001
1000
1100
0000
0010
0001
1000
0000
,
0010
0100
0010
0100
0001
1000
0001
0010
,
0100
1000
0100
0000
0010
0001
0010
0000
,
0100
0000
0000
0000
0000
0000
0000
0000
0000
0000
0000
0000
1000
0000
0000
0000
0000
0000
0000
0000
0000
0000
0000
0000
0001
0000
0000
0000
0000
0000
0000
0000
0000
0000
0000
0000
0100
0000
0000
0000
0000
0000
0000
0010
0000
0000
0000
0000
0100
0000
0000
0000
0000
0000
0000
0010
0000
0000
0000
0000
0100
0000
0000
0000
0000
0000
0000
0000
0000
0000
0000
0000
0001
0000
0000
0000
0000
0000
0000
0000
0000
0000
0000
0000
1000
0000
0000
0000
0000
0000
0000
0000
0000
0000
0000
0000
,
2002
0000
3003
0000
;

//--------------- dance-double - HellKiteChaos ----------------
#NOTES:
     dance-double:
     HellKiteChaos:
     Challenge:
     11:
     0,0,0,0,0:
00000000
00000000
00000000
00000000
,
00000000
00000000
00000000
00000000
,
00010000
00000100
00000020
00000000
00000031
00000100
00000020
00000000
,
00010030
00001000
00020000
00000000
00000000
00000000
00001000
00031000
,
00011000
00000000
10010000
00000000
00010000
01000000
00100000
00000000
,
10000000
01000000
00100000
00010000
00100000
00001000
00010000
00000100
,
00010000
00010000
00002000
00000000
00003010
00000010
00000200
00000000
,
00001300
00000000
00000000
00000000
00000000
00000000
00000000
00000000
00000000
00000000
00000000
00000000
00000001
00000000
00000000
00000000
00000000
00000000
00000000
00000000
00000000
00000000
00000000
00000000
00001000
00000000
00000000
00000000
00000000
00000000
00000000
00000000
00000000
00000000
00000000
00000000
00000010
00000000
00000000
00000000
00000000
00000000
00000000
00000100
00000000
00000000
00000000
00000000
00000010
00000000
00000000
00000000
00000000
00000000
00000000
00000100
00000000
00000000
00000000
00000000
00000010
00000000
00000000
00000000
00000000
00000000
00000000
00000000
00000000
00000000
00000000
00000000
00000100
00000000
00000000
00000000
00000000
00000000
00000000
00000000
00000000
00000000
00000000
00000000
00000001
00000000
00000000
00000000
00000000
00000000
00000000
00000000
00000000
00000000
00000000
00000000
,
00001001
00001000
00001100
00000000
00000100
00010000
00002000
00000000
,
00103000
01000000
00100000
01000000
10000000
00010000
10000000
00100000
,
01000000
00010000
01000000
00000000
00100000
10000000
00100000
00000000
,
01000000
00000000
00000000
00000000
00000000
00000000
00000000
00000000
00000000
00000000
00000000
00000000
00010000
00000000
00000000
00000000
00000000
00000000
00000000
00000000
00000000
00000000
00000000
00000000
10000000
00000000
00000000
00000000
00000000
00000000
00000000
00000000
00000000
00000000
00000000
00000000
01000000
00000000
00000000
00000000
00000000
00000000
00000000
00100000
00000000
00000000
00000000
00000000
01000000
00000000
00000000
00000000
00000000
00000000
00000000
00100000
00000000
00000000
00000000
00000000
01000000
00000000
00000000
00000000
00000000
00000000
00000000
00000000
00000000
00000000
00000000
00000000
00100000
00000000
00000000
00000000
00000000
00000000
00000000
00000000
00000000
00000000
00000000
00000000
00001000
00000000
00000000
00000000
00000000
00000000
00000000
00000000
00000000
00000000
00000000
00000000
,
00010000
00000100
00010000
00001000
00010000
00000100
00010000
00000000
,
00001000
00100000
00010000
00100000
00001000
00100000
00010000
00000000
,
00100000
00100000
01000000
01000000
10000000
00010000
10010000
00000000
,
10000000
00100000
00010000
00100000
10000000
00100000
01100000
00000000
,
01000000
00010000
01000000
00001000
00010000
00001000
00011000
00000000
,
00010000
00000010
00001000
00000010
00000100
00000010
00001010
00000000
,
00001000
00000001
00000100
00000010
00001000
00000100
00001100
00000000
,
00010000
00001000
00100000
01000000
10000000
00010000
10010000
00000000
,
00010000
00000000
01000000
00000000
00010000
00100000
01000000
00000000
,
00100000
00000000
01000000
00000000
01000000
00010000
00001000
00000010
,
00000100
00000000
00001000
00000000
00000001
00001001
00001001
00000000
,
00000220
00000000
00000000
00000330
,
00001001
00000001
00000100
00000010
00001000
00000010
00001000
00000100
,
00010000
00000100
00010000
00001000
01000000
00010000
00100000
00000000
,
01000000
00100000
01000000
00100000
00100000
00010000
10010000
00000000
,
10000000
00010000
01000000
00001000
00010000
00000010
00000100
00000000
,
00000001
00000100
00000000
00000010
00001000
00000010
00000100
00000000
,
00000001
00000010
00000000
00000100
00001000
00000100
00000010
00000000
,
00000001
00000001
00001000
00001000
00000100
00010000
00011000
00000000
,
01000000
00000000
00000000
00000000
00000000
00000000
00000000
00000000
00000000
00000000
00000000
00000000
01000000
00000000
00000000
00000000
00000000
00000000
00000000
00000000
00000000
00000000
00000000
00000000
00100000
00000000
00000000
00000000
00000000
00000000
00000000
00000000
00000000
00000000
00000000
00000000
00000000
00000000
00000000
00000000
00000000
00000000
00000000
01000000
00000000
00000000
00000000
00000000
00100000
00000000
00000000
00000000
00000000
00000000
00000000
01000000
00000000
00000000
00000000
00000000
00100000
00000000
00000000
00000000
00000000
00000000
00000000
00000000
00000000
00000000
00000000
00000000
10000000
00000000
00000000
00000000
00000000
00000000
00000000
00000000
00000000
00000000
00000000
00000000
00010000
00000000
00000000
00000000
00000000
00000000
00000000
00000000
00000000
00000000
00000000
00000000
,
20020000
00000000
00000000
30030000
,
01100000
00000000
10010000
00000000
00010000
01000000
00100000
00000000
,
10000000
01000000
00100000
00010000
00100000
00001000
00010000
00000100
,
00010000
00010000
00002000
00000000
00003010
00000010
00000200
00000000
,
00001300
00000000
00000000
00000000
00000000
00000000
00000000
00000000
00000000
00000000
00000000
00000000
00000001
00000000
00000000
00000000
00000000
00000000
00000000
00000000
00000000
00000000
00000000
00000000
00001000
00000000
00000000
00000000
00000000
00000000
00000000
00000000
00000000
00000000
00000000
00000000
00000010
00000000
00000000
00000000
00000000
00000000
00000000
00000100
00000000
00000000
00000000
00000000
00000010
00000000
00000000
00000000
00000000
00000000
00000000
00000100
00000000
00000000
00000000
00000000
00000010
00000000
00000000
00000000
00000000
00000000
00000000
00000000
00000000
00000000
00000000
00000000
00000100
00000000
00000000
00000000
00000000
00000000
00000000
00000000
00000000
00000000
00000000
00000000
00000001
00000000
00000000
00000000
00000000
00000000
00000000
00000000
00000000
00000000
00000000
00000000
,
00001001
00001000
00001100
00000000
00000100
00010000
00002000
00000000
,
00103000
01000000
00100000
01000000
10000000
00010000
10000000
00100000
,
01000000
00010000
01000000
00000000
00100000
10000000
00100000
00000000
,
01000000
00000000
00000000
00000000
00000000
00000000
00000000
00000000
00000000
00000000
00000000
00000000
00010000
00000000
00000000
00000000
00000000
00000000
00000000
00000000
00000000
00000000
00000000
00000000
10000000
00000000
00000000
00000000
00000000
00000000
00000000
00000000
00000000
00000000
00000000
00000000
01000000
00000000
00000000
00000000
00000000
00000000
00000000
00100000
00000000
00000000
00000000
00000000
01000000
00000000
00000000
00000000
00000000
00000000
00000000
00100000
00000000
00000000
00000000
00000000
01000000
00000000
00000000
00000000
00000000
00000000
00000000
00000000
00000000
00000000
00000000
00000000
00100000
00000000
00000000
00000000
00000000
00000000
00000000
00000000
00000000
00000000
00000000
00000000
01000000
00000000
00000000
00000000
00000000
00000000
00000000
00000000
00000000
00000000
00000000
00000000
,
20020000
00000000
30030000
00000000
;
