#TITLE:ORDINARY WORLD;
#SUBTITLE:;
#ARTIST:AURORA featuring NAIMEE COLEMAN;
#TITLETRANSLIT:;
#SUBTITLETRANSLIT:;
#ARTISTTRANSLIT:;
#GENRE:;
#CREDIT:;
#MUSIC:ORDINARY WORLD.mp3;
#BANNER:ORDINARY WORLD.png;
#BACKGROUND:ORDINARY WORLD-bg.png;
#CDTITLE:;
#SAMPLESTART:57.396;
#SAMPLELENGTH:13.864;
#SELECTABLE:YES;
#OFFSET:-0.203;
#BPMS:0.000=138.491;
#STOPS:;
#DISPLAYBPM:139.000;
#BGCHANGES:;
#FGCHANGES:;

//--------------- dance-single - HellKiteChaos ----------------
#NOTES:
     dance-single:
     HellKiteChaos:
     Challenge:
     12:
     0,0,0,0,0:
0000
0000
0000
0000
,
0000
0000
0000
0000
,
0000
0000
0000
0000
,
0000
0000
0000
0000
,
0000
0000
0000
0000
,
2000
0000
3001
1000
0020
0000
1030
0001
,
0020
0000
0130
1000
0002
0000
1003
0000
,
0010
0000
0000
1000
0000
0000
0100
0000
0010
0000
0000
0001
0000
0000
0100
0000
,
0010
0000
0000
1000
0000
0000
0001
0000
0010
0000
0000
0100
0000
0000
1000
0000
,
0002
0000
0000
0000
0000
0000
0100
0000
0103
0000
0000
0010
0000
0000
1000
0000
,
0200
0000
0000
0000
0000
0000
0010
0000
0310
0000
0000
0001
0000
0000
1000
0000
,
0020
0000
0000
0000
0000
0000
0100
0000
0130
0000
0000
0001
0000
0000
1000
0000
,
0100
0000
0000
0100
0000
0000
0100
0000
0010
0000
0000
0010
0000
0000
0010
0000
,
0002
0000
0000
0000
0000
0000
1000
0000
1003
0000
0000
0001
0000
0000
0100
0000
,
0020
0000
0000
0000
0000
0000
0100
0000
0130
0000
0000
0001
0000
0000
0010
0000
,
0100
1000
0000
1000
0000
0000
1000
0000
0001
0000
0000
0001
0000
0000
0001
0000
,
0100
0000
0000
0100
0000
0000
0100
0000
0010
0000
0000
0010
0000
0000
0010
0000
,
1000
0100
1100
1000
0001
0100
0101
0001
,
1000
0010
1010
1000
0001
0010
0110
0000
,
0100
1000
0010
0001
0010
1000
0100
0000
,
0010
0000
0000
0010
0000
0000
0010
0000
0001
0000
0000
0001
0000
0000
0001
0000
,
0100
0010
0110
0100
0010
1000
1010
1000
,
0001
0100
0101
0001
1000
0001
1001
0000
,
1000
0010
0001
0010
1000
0100
0010
0001
,
0100
0010
0100
0010
0100
0001
0010
0100
,
2100
0000
3010
0000
0100
0001
0012
0000
,
0203
0000
0320
0000
1030
0001
2001
0000
,
3200
0000
0320
0000
0031
1000
2001
0000
,
3010
1000
1200
0000
0310
0001
0102
0000
,
0103
1000
0100
0001
0100
1000
0100
0001
,
0010
1000
0010
0001
0010
1000
0010
0001
,
1000
0000
0000
0010
0000
0000
0100
0000
0101
0000
0000
0001
0000
0000
1000
0000
,
1100
0000
0000
0100
0000
0000
0010
0000
0011
0000
0001
0000
1000
0000
0100
0000
,
0020
0002
0003
0200
0300
2030
3010
0001
,
1000
0010
0100
0001
0010
0100
1000
0001
,
0200
2000
3000
0020
0030
0302
1003
0100
,
0001
1000
0010
0001
0100
0010
1000
0000
,
0001
0100
0101
0001
1000
0010
1010
0000
,
1000
0100
1100
1000
0001
0010
0011
0000
,
0001
0100
1000
0100
0001
0010
0100
1000
,
0010
0001
0010
1000
0100
0010
0001
1000
,
0020
0002
0003
0200
0300
2030
3001
0010
,
1000
0001
0100
1000
0001
0100
0010
1000
,
0200
0002
0003
0020
0030
2300
3001
0100
,
1000
0100
0001
1000
0100
0010
0001
0000
,
1000
0010
1010
1000
0001
0100
0101
0000
,
0001
0010
0011
0001
1000
0100
1100
0000
,
0100
0010
0001
1000
0001
1000
0010
0100
,
0010
0100
0001
1000
0010
0100
0001
0100
,
1000
0000
0000
1000
0000
0000
2000
0000
0100
0000
0000
0100
0000
0000
3200
0000
,
0001
0000
0000
0001
0000
0000
0302
0000
0010
0000
0000
0010
0000
0000
0013
0000
;

//--------------- dance-double - HellKiteChaos ----------------
#NOTES:
     dance-double:
     HellKiteChaos:
     Challenge:
     12:
     0,0,0,0,0:
00000000
00000000
00000000
00000000
,
00000000
00000000
00000000
00000000
,
00000000
00000000
00000000
00000000
,
00000000
00000000
00000000
00000000
,
00000000
00000000
00000000
00000000
,
00002000
00000000
00013000
00001000
00000200
00000000
00000310
00001000
,
00000002
00000000
00000013
00000100
00002000
00000000
00003002
00000000
,
00000103
00000000
00000000
00000010
00000000
00000000
00001000
00000000
00000100
00000000
00000000
00000010
00000000
00000000
00000001
00000000
,
00000100
00000000
00000000
00001000
00000000
00000000
00010000
00000000
00100000
00000000
00000000
10000000
00000000
00000000
01000000
00000000
,
00200000
00000000
00000000
00000000
00000000
00000000
01300000
00000000
01000000
00000000
00000000
00100000
00000000
00000000
00010000
00000000
,
02000000
00000000
00000000
00000000
00000000
00000000
00100000
00000000
03100000
00000000
00000000
10000000
00000000
00000000
01000000
00000000
,
00200000
00000000
00000000
00000000
00000000
00000000
00001000
00000000
00301000
00000000
00000000
00010000
00000000
00000000
00001000
00000000
,
00000100
00000000
00000000
00000100
00000000
00000000
00000100
00000000
00000010
00000000
00000000
00000010
00000000
00000000
00000010
00000000
,
00002000
00000000
00000000
00000000
00000000
00000000
00000001
00000000
00003001
00000000
00000000
00000100
00000000
00000000
00000010
00000000
,
00002000
00000000
00000000
00000000
00000000
00000000
00000100
00000000
00003100
00000000
00000000
00000010
00000000
00000000
00000100
00000000
,
00010000
00000000
00000000
00010000
00000000
00000000
00010000
00000000
00001000
00000000
00000000
00001000
00000000
00000000
00001000
00000000
,
01000000
00000000
00000000
01000000
00000000
00000000
01000000
00000000
00100000
00000000
00000000
00100000
00000000
00000000
00100000
00000000
,
10000000
00100000
10100000
10000000
00010000
01000000
01010000
00010000
,
10000000
00100000
10100000
10000000
00010000
00100000
01100000
00000000
,
01000000
10000000
00100000
00010000
00001000
00000100
00000010
00001000
,
00000001
00000000
00000000
00000001
00000000
00000000
00000001
00000000
00001000
00000000
00000000
00001000
00000000
00000000
00001000
00000000
,
00000001
00000010
00000011
00000001
00001000
00000100
00001100
00001000
,
00000001
00000010
00000011
00000001
00000100
00000010
00000110
00000000
,
00000010
00000000
00000000
00001000
00000000
00000000
00000100
00000000
00010000
00000000
00000000
00001000
00000000
00000000
00100000
00000000
,
01000000
00000000
00000000
10000000
00000000
00000000
00010000
00000000
01000000
00000000
00000000
00100000
00000000
00000000
10000000
00000000
,
21000000
00000000
30100000
00000000
01000000
00010000
00210000
00000000
,
00302000
00000000
00023000
00000000
00030100
00000010
00000120
00000000
,
00000032
00000000
00002003
00000000
00003010
00000100
00000120
00000000
,
00001030
00000001
00001002
00000000
00000013
00000100
00001200
00000000
,
00010300
00000100
00010000
00000010
00010000
00000100
00010000
00001000
,
01000000
00001000
00100000
00001000
01000000
00001000
00010000
01000000
,
10000000
00000000
00000000
00100000
00000000
00000000
01000000
00000000
00001000
00000000
00000000
00010000
00000000
00000000
00001000
00000000
,
00010000
00000000
00000000
00000100
00000000
00000000
00000010
00000000
00000100
00000000
00000000
00010000
00000000
00000000
00001000
00000000
,
00020000
02000000
03000000
00002000
00003000
00030020
00000130
00000001
,
00000010
00001000
00010000
01000000
00100000
00001000
00010000
00000000
,
00002000
00000200
00000300
00020000
00030000
00203000
01300000
10000000
,
00100000
00010000
00001000
00000100
00000010
00010000
00001000
00000000
,
00010000
00001000
00011000
00001000
01000000
00010000
01010000
00000000
,
10000000
00100000
10100000
10000000
00010000
00100000
00110000
00000000
,
00010000
01000000
10000000
01000000
00010000
00100000
01000000
10000000
,
00100000
00010000
00001000
00000100
00000001
00000010
00001000
00010000
,
00002000
00200000
00300000
00020000
00030000
00003200
00000310
00001000
,
00000100
00000010
00000001
00000100
00001000
00010000
00001000
00000000
,
00020000
00000020
00000030
00002000
00003000
02030000
03100000
00010000
,
01000000
00100000
10000000
01000000
00010000
00001000
00010000
00000000
,
00001000
00010000
00010100
00000100
00001000
00000001
00001001
00000000
,
00001000
00000001
00000101
00000100
00000010
00010000
00010010
00000000
,
00010000
00000010
00010000
00001000
00100000
00010000
00100000
00001000
,
01000000
00010000
01000000
00100000
10000000
01000000
00100000
00010000
,
10000000
00000000
00000000
10000000
00000000
00000000
20000000
00000000
01000000
00000000
00000000
01000000
00000000
00000000
32000000
00000000
,
00010000
00000000
00000000
00010000
00000000
00000000
03020000
00000000
00100000
00000000
00000000
00100000
00000000
00000000
00130000
00000000
;
