#VERSION:0.83;
#TITLE:Midnite Blaze;
#SUBTITLE:;
#ARTIST:U1 Jewel Style;
#TITLETRANSLIT:;
#SUBTITLETRANSLIT:;
#ARTISTTRANSLIT:;
#GENRE:;
#CREDIT:;
#MUSIC:Midnite Blaze.mp3;
#BANNER:Midnite Blaze.png;
#BACKGROUND:Midnite Blaze-bg.png;
#CDTITLE:;
#SAMPLESTART:25.580;
#SAMPLELENGTH:12.000;
#SELECTABLE:YES;
#OFFSET:-0.039;
#BPMS:0.000=150.136;
#STOPS:;
#SPEEDS:0.000=1.000=0.000=0;
#SCROLLS:0.000=1.000;
#TICKCOUNTS:0.000=4;
#TIMESIGNATURES:0.000=4=4;
#LABELS:0.000=Song Start;
#COMBOS:0.000=1;
#DISPLAYBPM:150.000;
#ORIGIN:;
#PREVIEWVID:;
#JACKET:;
#CDIMAGE:;
#DISCIMAGE:;
#BGCHANGES:;
#FGCHANGES:;

//--------------- dance-single - HellKiteChaos ----------------
#NOTEDATA:;
#STEPSTYPE:dance-single;
#DESCRIPTION:HellKiteChaos;
#DIFFICULTY:Challenge;
#METER:14;
#RADARVALUES:0,0,0,0,0;
#NOTES:
0000
0000
0000
0000
,
0000
0000
0000
0000
,
0000
0000
0000
0000
,
0000
0000
0000
0000
,
0001
0000
1000
0000
0001
0100
0000
0001
0100
0000
0000
0010
0000
0000
1000
0000
,
0000
0001
0000
0000
0100
0000
0000
0010
0000
0000
1000
0000
0001
0000
1000
0000
,
0100
0010
0100
0010
0001
1000
0000
0010
0100
0000
0001
0010
0000
0100
1000
0000
,
0001
0100
0001
0100
0010
1000
0010
1000
0100
0010
0100
0010
0001
1000
0001
1000
,
0010
0000
0100
0000
0010
0000
0000
0100
0000
0000
0001
0000
1000
0000
0100
0000
,
0010
0001
0000
1000
0100
1000
0001
0000
,
0100
0010
1000
0010
0100
0010
1000
0001
,
1000
0100
1000
0000
0001
1000
0001
0000
1000
0010
1000
0010
0100
0000
0000
0000
,
0001
0100
1000
0100
0010
0100
0001
0000
,
1000
0010
0001
0010
0100
0010
0100
0000
,
0001
0010
0011
0001
1000
0100
0110
0000
,
0020
0001
0000
0032
0000
0103
0010
1000
,
0101
0000
1100
0000
0101
0000
0001
0010
,
0010
0100
0100
1000
0001
0100
1010
0000
,
2100
0000
3010
0000
0012
0000
0103
0100
,
0010
1000
0002
0023
0230
2300
3002
0103
,
0010
0000
0100
0000
0010
0000
0100
0000
0001
0000
1000
0000
0000
0000
0001
1000
,
0100
0010
0100
0010
0010
0001
0021
0000
,
0230
1000
1300
0001
0200
0010
0310
1000
,
0001
0100
0001
0000
1000
0001
1000
0000
0010
1000
0010
0000
0100
0001
0100
0001
,
1000
0000
0100
0000
0010
0001
0000
0010
0002
0000
0000
2003
0000
0000
3002
0000
,
0000
0203
0000
0000
0320
0000
0000
2030
0000
0000
3001
0000
0100
0000
0010
0000
,
1000
0001
1000
0001
0010
0100
0000
0010
0100
0000
1000
0100
0000
1000
0100
0000
,
0010
0001
0000
0010
0001
0000
1000
0010
0000
0100
0001
0000
1000
0000
0001
0000
,
1000
0000
0010
0000
0100
0001
0000
0100
0002
0000
0000
2003
0000
0000
3002
0000
,
0000
0023
0000
0000
0230
0000
0000
2300
0000
0000
3001
0000
0010
0000
0100
0000
,
1000
0001
1000
0001
0100
0010
0000
0100
0010
0000
1000
0010
0000
1000
0010
0000
,
0100
0001
0100
0001
1000
0100
1000
0100
0010
0001
0010
0001
0100
0010
0100
0010
,
1000
0100
1100
1000
0001
0100
0110
0000
,
0010
0100
0010
1000
0001
0100
0110
0000
,
0100
0001
0010
0001
0100
0010
1000
0100
,
0001
0100
1000
0001
0100
0010
0110
0000
,
0101
1010
0000
0000
0000
1100
0000
0000
,
0000
0110
0000
0011
0000
1001
0000
0000
,
1000
0100
0000
0010
0000
0100
0000
0010
,
0000
0001
0000
1000
0010
0100
0001
1000
,
1010
0000
0011
0000
1010
0000
1000
0100
,
0100
0010
0010
0001
1000
0010
0101
0000
,
0012
0000
0103
0000
2100
0000
3010
0010
,
0100
0001
2000
3200
0320
0032
2003
3010
,
0100
0000
0010
0000
0100
0000
0010
0000
1000
0000
0001
0000
0000
0000
1000
0001
,
0010
0100
0010
0100
0100
1000
1200
0000
,
0320
0001
0031
1000
0020
0100
0130
0001
,
1000
0010
1000
0000
0001
1000
0001
0000
0100
0001
0100
0000
0010
1000
0010
1000
,
0001
0000
0010
0000
0100
1000
0000
0100
2000
0000
0000
3002
0000
0000
2003
0000
,
0000
3020
0000
0000
0230
0000
0000
0302
0000
0000
1003
0000
0010
0000
0100
0000
,
0001
1000
0001
1000
0100
0010
0000
0100
0010
0000
0001
0010
0000
0001
0010
0000
,
0100
1000
0000
0100
1000
0000
0001
0100
0000
0010
1000
0000
0001
0000
1000
0000
,
0001
0000
0100
0000
0010
1000
0000
0010
2000
0000
0000
3002
0000
0000
2003
0000
,
0000
3200
0000
0000
0320
0000
0000
0032
0000
0000
1003
0000
0100
0000
0010
0000
,
0001
1000
0001
1000
0010
0100
0000
0010
0100
0000
0001
0100
0000
0001
0100
0000
,
0010
1000
0010
1000
0001
0010
0001
0010
0100
1000
0100
1000
0010
0100
0010
0100
,
0002
0000
0000
0003
;

//--------------- dance-double - HellKiteChaos ----------------
#NOTEDATA:;
#STEPSTYPE:dance-double;
#DESCRIPTION:HellKiteChaos;
#DIFFICULTY:Challenge;
#METER:13;
#RADARVALUES:0,0,0,0,0;
#NOTES:
00000000
00000000
00000000
00000000
,
00000000
00000000
00000000
00000000
,
00000000
00000000
00000000
00000000
,
00000000
00000000
00000000
00000000
,
00001000
00000000
00100000
00000000
01000000
00100000
00000000
01000000
00100000
00000000
00000000
00010000
00000000
00000000
10000000
00000000
,
00000000
00100000
00000000
00000000
01000000
00000000
00000000
00001000
00000000
00000000
00010000
00000000
00001000
00000000
00010000
00000000
,
00000100
00001000
00000100
00001000
00000100
00001000
00000000
00000001
00000010
00000000
00000001
00000010
00000000
00000100
00001000
00000000
,
00000100
00010000
00001000
00000100
00000010
00001000
00000100
00000010
,
00000001
00000000
00001000
00000000
00000001
00000000
00000000
00000100
00000000
00000000
00000010
00000000
00001000
00000000
00000100
00000000
,
00001000
00000010
00000000
00000100
00000001
00001000
00001001
00000000
,
00001000
00000100
00010000
00001000
00100000
00010000
10000000
01000000
,
00100000
00000000
00100000
00000000
01000000
00000000
01000000
00000000
00100000
00010000
00100000
00010000
10000000
00000000
00000000
00000000
,
00100000
01000000
00010000
01000000
00100000
10000000
01000000
00010000
,
00001000
00000010
00000001
00000100
00000001
00000010
00000100
00000000
,
00001000
00000100
00010000
00001000
00010000
01000000
00100000
00000000
,
00010000
20000000
00000000
00100000
00000000
31000000
00100000
01000000
,
11000000
00000000
01010000
00000000
00011000
00000000
00001000
00020000
,
00000000
00030100
00001000
00000010
00001000
00000001
00001001
00000000
,
00002100
00003010
00000102
00000023
,
00001030
00010000
01000000
00010000
01000000
10000000
00010000
01000000
,
00100000
10000000
00010000
01000000
00100000
00200000
00000000
01300000
,
01000000
00001000
00010000
00001000
00010000
00000100
00010200
00000000
,
00002300
00000010
00003010
00000100
00000002
00001000
00001003
00000100
,
00000010
00000001
00000010
00000000
00000100
00001000
00000100
00000000
00010000
00001000
00010000
00000000
00001000
00100000
00001000
00100000
,
00010000
00000000
10000000
00000000
00100000
01000000
00000000
00100000
02000000
00000000
00000000
03020000
00000000
00000000
00230000
00000000
,
00000000
00302000
00000000
00000000
00023000
00000000
00000000
00030200
00000000
00000000
00000310
00000000
00000001
00000000
00001000
00000000
,
00000100
00001000
00000100
00001000
00000001
00000010
00000000
00000100
00001000
00000000
00000100
00001000
00000000
00000010
00000100
00000000
,
00000010
00000100
00000000
00000001
00001000
00000000
00000010
00000100
00000000
00000000
00000001
00000000
00000100
00000000
00000010
00000000
,
00010000
00000000
00001000
00000000
01000000
00010000
00000000
01000000
00020000
00000000
00000000
20030000
00000000
00000000
30020000
00000000
,
00000000
00230000
00000000
00000000
02300000
00000000
00000000
23000000
00000000
00000000
30010000
00000000
00100000
00000000
01000000
00000000
,
10000000
00010000
10000000
00010000
01000000
00100000
00000000
01000000
00100000
00000000
10000000
00100000
00000000
10000000
00100000
00000000
,
01000000
00010000
01000000
00010000
00100000
00001000
00100000
00001000
00010000
00001000
00010000
00001000
00010000
00000010
00010000
00000010
,
00000100
00000001
00000011
00000001
00001000
00000010
00000110
00000000
,
00000100
00000010
00000100
00000001
00001000
00000010
00000110
00000000
,
00000010
00001000
00000100
00001000
00000010
00000100
00000001
00000010
,
00001000
00010000
01000000
10000000
00010000
01000000
01100000
00000000
,
01010000
10100000
00000000
00000000
00000000
11000000
00000000
00000000
,
00000000
01100000
00000000
00110000
00000000
00011000
00000000
00000000
,
00001000
00000010
00000000
00000100
00000000
00000001
00000000
00001000
,
00000000
00001000
00000000
00000001
00000100
00000010
00001000
00000001
,
00000101
00000000
00001100
00000000
00000101
00000000
00000100
00000010
,
00000010
00010000
00010000
00001000
01000000
00010000
01010000
00000000
,
00120000
00000000
01030000
00000000
21000000
00000000
30100000
00100000
,
01000000
00010000
20000000
32000000
03200000
00320000
20030000
30100000
,
01000000
00000000
00001000
00000000
00010000
00000000
00001000
00000000
00000100
00000000
00000001
00000000
00000000
00000000
00000001
00001000
,
00000100
00000010
00000100
00000010
00000010
00000001
00000021
00000000
,
00000230
00001000
00001300
00000001
00000200
00000010
00000310
00001000
,
00000001
00000100
00000001
00000000
00001000
00000001
00001000
00000000
00000010
00001000
00000010
00000000
00000100
00000001
00000100
00000001
,
00001000
00000000
00000100
00000000
00010000
00001000
00000000
00001000
00200000
00000000
00000000
00320000
00000000
00000000
20030000
00000000
,
00000000
30200000
00000000
00000000
02300000
00000000
00000000
03020000
00000000
00000000
10030000
00000000
00100000
00000000
01000000
00000000
,
00010000
10000000
00010000
10000000
01000000
00100000
00000000
01000000
00100000
00000000
00010000
00100000
00000000
00010000
00100000
00000000
,
01000000
10000000
00000000
01000000
10000000
00000000
00010000
01000000
00000000
00100000
10000000
00000000
00010000
00000000
01000000
00000000
,
00001000
00000000
00010000
00000000
00000100
00000010
00000000
00000010
00000002
00000000
00000000
00002003
00000000
00000000
00003002
00000000
,
00000000
00000023
00000000
00000000
00000230
00000000
00000000
00002300
00000000
00000000
00003001
00000000
00000010
00000000
00000100
00000000
,
00001000
00000001
00001000
00000001
00000100
00000010
00000000
00000100
00000010
00000000
00001000
00000010
00000000
00001000
00000010
00000000
,
00000100
00000010
00000100
00000010
00001000
00000000
00000010
00000000
00010000
00001000
00010000
00001000
00100000
00010000
00100000
00010000
,
20000000
00000000
00000000
30000000
;
