#VERSION:0.83;
#TITLE:MY SWEET DARLIN';
#SUBTITLE:;
#ARTIST:WILDSIDE;
#TITLETRANSLIT:;
#SUBTITLETRANSLIT:;
#ARTISTTRANSLIT:;
#GENRE:;
#CREDIT:;
#MUSIC:MY SWEET DARLIN'.mp3;
#BANNER:MY SWEET DARLIN'.png;
#BACKGROUND:MY SWEET DARLIN'-bg.png;
#CDTITLE:;
#SAMPLESTART:42.040;
#SAMPLELENGTH:12.000;
#SELECTABLE:YES;
#OFFSET:-0.051;
#BPMS:0.000=157.000;
#STOPS:;
#SPEEDS:0.000=1.000=0.000=0;
#SCROLLS:0.000=1.000;
#TICKCOUNTS:0.000=4;
#TIMESIGNATURES:0.000=4=4;
#LABELS:0.000=Song Start;
#COMBOS:0.000=1;
#DISPLAYBPM:157.000;
#ORIGIN:;
#PREVIEWVID:;
#JACKET:;
#CDIMAGE:;
#DISCIMAGE:;
#BGCHANGES:;
#FGCHANGES:;

//--------------- dance-single - HellKiteChaos ----------------
#NOTEDATA:;
#STEPSTYPE:dance-single;
#DESCRIPTION:HellKiteChaos;
#DIFFICULTY:Challenge;
#METER:13;
#RADARVALUES:0,0,0,0,0;
#NOTES:
0000
0000
0000
0000
,
0000
0000
0000
0000
,
0001
0100
0010
1000
0000
1000
0100
0010
,
0000
0001
0010
0000
0100
1000
0001
0100
,
0010
1000
0001
0100
0000
0010
1000
0001
,
0000
0100
0001
1000
0010
0100
0001
1000
,
0100
0010
0001
1000
0000
0001
0010
0100
,
0000
1000
0100
0010
0001
0100
0010
1000
,
0100
0000
0010
0001
0010
0000
0100
0000
0010
0100
0010
0000
0001
0000
1000
0000
,
0020
0000
0000
0030
,
0000
0100
0010
0010
1000
0000
0001
1000
,
0100
0010
0100
0010
0000
0001
1000
0100
,
1000
0010
1010
0000
0010
0100
0101
0000
,
0100
0000
0010
0000
1000
0000
1000
0000
0001
0000
0100
0000
0010
0000
0100
0001
,
1000
0100
0100
1000
0001
0001
0100
0010
,
1000
1000
0001
0010
0001
0000
1000
0100
,
0021
0130
1020
0130
,
0001
0100
0010
0100
0001
0101
0000
1100
,
1000
0100
1000
0100
0010
0100
0010
0100
,
0010
0001
0010
0001
1000
0000
0010
0100
,
0001
0101
1000
1010
,
0001
0011
1000
1100
,
0010
0010
0001
1000
,
0010
0000
0100
0000
0010
0000
0100
0000
0001
0100
0001
0100
0010
1000
0010
1000
,
0001
0100
0010
0100
0001
0100
0010
1000
,
0001
0100
0100
0010
1000
0000
0001
0010
,
0100
1000
0100
1000
0001
0100
0001
0100
,
0010
0000
1000
0001
0100
0000
0010
0000
0100
0010
0100
0000
0010
0100
0010
0000
,
0100
0000
0110
0100
0001
1000
0100
0010
,
0001
1000
0000
0001
0100
1000
0100
0001
,
0010
0000
1100
0000
0100
1000
0010
0100
,
0001
0000
1000
0000
1001
0000
0000
0000
0001
1000
0001
1000
0001
0000
1000
0000
,
0100
0000
0011
0000
0100
1000
0010
2000
,
0000
0100
0000
3001
0010
0000
0101
0010
,
1000
0000
0101
0000
1000
0100
1000
0010
,
0100
0000
0000
0000
1001
0000
0000
0000
0001
0010
0001
0010
0001
0000
1000
0000
,
0100
0000
0110
0010
0001
0010
0001
0010
,
0100
1000
0001
0000
0100
0010
1000
0010
,
0100
0000
1001
0000
0001
0010
0001
0010
,
0100
0000
0100
0000
0100
0000
0100
0000
0100
0000
0100
0000
1000
0001
1000
0001
,
2000
3020
0230
0302
0000
2003
3002
0023
,
0000
0230
2300
3002
0203
0320
2030
3200
,
0320
0032
0203
0320
0000
2030
3002
0023
,
0000
0230
2300
3002
0203
0310
1001
0000
,
0010
0000
1000
0000
0001
0100
0010
0000
1000
0000
0001
0000
0100
0000
0001
0000
,
0010
0010
0100
0100
1000
0001
0100
0010
,
1000
0000
0001
0000
1000
0100
0010
0000
0001
0000
1000
0000
0100
0000
0010
0000
,
0100
0010
0100
0010
0001
1000
0001
0100
,
0220
0000
0000
0000
,
0330
0000
0000
0000
;

//--------------- dance-double - HellKiteChaos ----------------
#NOTEDATA:;
#STEPSTYPE:dance-double;
#DESCRIPTION:HellKiteChaos;
#DIFFICULTY:Challenge;
#METER:13;
#RADARVALUES:0,0,0,0,0;
#NOTES:
00000000
00000000
00000000
00000000
,
00000000
00000000
00000000
00000000
,
00001000
01000000
00100000
10000000
00000000
10000000
01000000
00010000
,
00000000
00000100
00000010
00000000
00000001
00001000
00000010
00000100
,
00000001
00000010
00000100
00001000
00000000
00000010
00000100
00001000
,
00000000
00010000
00100000
10000000
00100000
01000000
00010000
00100000
,
01000000
10000000
00010000
00100000
00000000
01000000
00100000
00010000
,
00000000
10000000
00100000
00010000
00001000
00000100
00000010
00001000
,
00000001
00000000
00001000
00000001
00001000
00000000
00000001
00000000
00000100
00000010
00000100
00000000
00000010
00000000
00001000
00000000
,
00000002
00000000
00000000
00000003
,
00000000
00000100
00000010
00001000
00000010
00000000
00001000
00000100
,
00010000
00001000
00010000
00001000
00000000
00010000
01000000
00100000
,
00010000
10000000
20010000
00000000
30100000
01000000
01020000
00000000
,
01030000
00000000
00100000
00000000
10000000
00000000
10000000
00000000
00010000
00000000
01000000
00000000
00100000
00000000
01000000
00010000
,
10000000
01000000
01000000
00100000
00010000
00010000
01000000
00001000
,
00010000
00010000
00010000
00000100
00000010
00000000
00000001
00000100
,
00000201
00000000
00000310
00000000
00001020
00000000
00010030
00001000
,
00010000
00000100
01000000
00001000
00010000
00011000
00000000
00011000
,
00001000
00100000
00001000
00100000
01000000
00100000
01000000
10000000
,
00010000
10000000
00010000
01000000
00001000
00000000
00010000
00000100
,
00000100
00000011
00000100
00001001
,
00010000
00101000
00100000
21000000
,
00100000
30200000
02300000
03010000
,
00100000
00000000
01000000
00000000
00100000
00000000
01000000
00000000
10000000
00010000
10000000
00000000
00010000
01000000
00010000
01000000
,
00100000
01000000
00100000
01000000
00010000
00100000
00001000
00010000
,
00000100
00001000
00000100
00001000
00000010
00000000
00000100
00000001
,
00001000
00000100
00000010
00000001
00001000
00000100
00000010
00000001
,
00000100
00000000
00000010
00000100
00000010
00000000
00001000
00000000
00000100
00010000
00000100
00000000
00010000
00001000
00010000
00000000
,
00002000
00000000
01003000
01000000
00010000
10000000
01000000
00100000
,
00010000
20000000
00000000
30010000
01000000
00010000
00100000
01000000
,
00020000
00000000
00031000
00000000
00000010
00000001
00000100
00000010
,
00000100
00000000
00000010
00000000
00001001
00000000
00000000
00000000
00000001
00001000
00000001
00001000
00000001
00000000
00000100
00000000
,
00000010
00000000
00000110
00000000
00000010
00001000
00000000
00000100
,
00010000
00001000
00010000
00001000
00000100
00000010
00001000
00000100
,
00001100
00000000
00000011
00000000
00000010
00000100
00001000
00000001
,
00001000
00000000
00000000
00000000
00001001
00000000
00000000
00000000
00001000
00000100
00001000
00000100
00010000
00000000
00001000
00000000
,
01000000
00000000
01100000
00100000
00010000
00100000
10000000
00100000
,
01000000
10000000
00010000
00100000
10000000
01000000
00100000
00010000
,
10000000
00010000
10010000
00000000
00001000
00010000
00011000
00000000
,
00000100
00000000
00000100
00000000
00000100
00000000
00000100
00000000
00000100
00000000
00000100
00000000
00000010
00000001
00000010
00000001
,
00001000
00000100
00000001
00000200
00000000
00001300
00000010
00000200
,
00000000
00000301
00001000
00000010
00000100
00001000
00010000
00100000
,
01000000
00010000
00100000
02000000
00000000
03010000
00001000
00000020
,
00000000
00000031
00000100
00000010
00010000
00001000
00011000
00000000
,
00001000
00100000
00010000
01000000
00001000
00010000
00000010
00001000
,
00000100
00010000
00001000
00100000
00001000
00010000
00000100
00010000
,
00001000
01000000
00000100
00010000
00001000
00100000
00000010
00010000
,
00001000
00100000
00001000
00010000
00000010
00010000
00001000
01000000
,
02200000
00000000
00000000
00000000
,
03300000
00000000
00000000
00000000
;
