#TITLE:MOONLIGHT SHADOW (New Vocal Version);
#SUBTITLE:;
#ARTIST:MISSING HEART;
#TITLETRANSLIT:;
#SUBTITLETRANSLIT:;
#ARTISTTRANSLIT:;
#GENRE:;
#CREDIT:;
#MUSIC:MOONLIGHT SHADOW (New Vocal Version).mp3;
#BANNER:MOONLIGHT SHADOW (New Vocal Version).png;
#BACKGROUND:MOONLIGHT SHADOW (New Vocal Version)-bg.png;
#CDTITLE:;
#SAMPLESTART:0.000;
#SAMPLELENGTH:0.000;
#SELECTABLE:YES;
#OFFSET:-0.470;
#BPMS:0.000=140.000;
#STOPS:;
#DISPLAYBPM:140.000;
#BGCHANGES:;
#FGCHANGES:;

//--------------- dance-single - HellKiteChaos ----------------
#NOTES:
     dance-single:
     HellKiteChaos:
     Challenge:
     11:
     0,0,0,0,0:
0000
0000
0000
0000
,
0000
0000
0000
0000
,
0000
0000
0000
0000
,
0000
0000
0000
0000
,
0000
0000
0000
0000
,
0000
0000
0000
0000
,
0002
0000
1003
0010
0100
0010
0100
0001
,
2000
0100
3002
0203
,
0310
0100
0001
1000
0001
0000
1000
0100
,
0010
0000
0011
0000
0001
0100
1000
0100
,
0002
0000
1003
0100
0010
0100
0010
0001
,
2000
0010
3002
0023
,
0130
0010
0001
1000
0001
0000
1000
0010
,
0100
0000
0101
0000
0001
0010
1000
0010
,
0001
0010
0001
0100
0001
0010
0002
0000
,
1003
0100
1000
0010
1000
0000
0001
0000
,
0200
0000
0010
0000
1000
0000
0301
0010
,
0100
1000
0001
1000
0002
0000
0103
0100
,
0200
0000
0310
0010
0010
1000
0010
0010
,
0100
0001
1000
0100
0010
0000
0011
0001
,
2000
3020
0230
0302
,
2000
0000
3003
0000
,
2010
0000
3100
0010
0001
0100
0001
0010
,
0210
0000
1300
0001
1002
0000
0203
0000
,
0310
0001
0010
1000
0001
0000
0010
0100
,
1100
0000
0101
0000
1000
1000
0001
0001
,
0012
0000
0103
0010
1000
0100
1000
0010
,
0210
0000
0301
1000
2001
0000
3200
0000
,
0310
0001
0010
0001
1000
0000
0010
0100
,
0101
0000
1100
0000
0001
0001
1000
1000
,
0001
0001
0200
0000
0310
0010
2000
0000
,
3001
0001
0010
0100
1000
1000
0001
0000
,
0102
0000
1003
0000
2100
0000
3100
0010
,
0012
0000
0103
0100
0010
1000
0001
0001
,
0001
0010
1000
0010
0001
1000
0001
1000
,
0001
0100
1000
0100
0001
0000
1000
0100
,
1200
0320
0032
2003
,
0002
0000
0000
0000
0000
0000
0000
0000
3003
0000
0000
0000
0000
0000
1000
0100
,
0020
0000
0000
0000
0001
0000
0000
0000
0031
0000
0000
0000
1000
0000
0001
0100
,
0020
0000
1000
0000
1030
0000
0100
0010
,
0012
0000
2003
0000
3010
0100
0010
0100
,
0001
0011
2100
0000
,
3002
0000
1003
0010
0100
0010
0100
0001
,
2000
0100
3002
0203
,
0310
0100
0001
1000
0001
0000
1000
0100
,
0010
0000
0011
0000
0001
0100
1000
0100
,
0002
0000
1003
0100
0010
0100
0010
0001
,
2000
0010
3002
0023
,
0031
0010
0100
1000
0000
0000
0001
0100
,
0020
0000
2030
0000
3001
0001
1000
2000
,
0000
3000
0000
0000
;

//--------------- dance-double - HellKiteChaos ----------------
#NOTES:
     dance-double:
     HellKiteChaos:
     Challenge:
     11:
     0,0,0,0,0:
00000000
00000000
00000000
00000000
,
00000000
00000000
00000000
00000000
,
00000000
00000000
00000000
00000000
,
00000000
00000000
00000000
00000000
,
00000000
00000000
00000000
00000000
,
00000000
00000000
00000000
00000000
,
00001000
00000000
00010000
00001000
01000000
00010000
01000000
00100000
,
20000000
01000000
30020000
02030000
,
03100000
01000000
00010000
10000000
00010000
00000000
01000000
00001000
,
00010000
00000000
00011000
00000000
00010000
00000010
00001000
00000010
,
00001000
00000000
00000001
00000010
00000100
00000010
00000100
00001000
,
00000002
00000100
00002003
00003200
,
00000310
00000100
00001000
00000001
00001000
00000000
00000010
00000100
,
00000010
00000000
00000110
00000000
00000010
00000100
00000010
00010000
,
00001000
00100000
00010000
01000000
00010000
00100000
00020000
00000000
,
10030000
01000000
10000000
01000000
00100000
00000000
00010000
00000000
,
00210000
00000000
00301000
00000000
00012000
00000000
00013000
00001000
,
00010000
00000100
00010000
00000100
00002000
00000000
00003001
00000001
,
00000002
00000000
00000103
00000100
00000100
00000010
00000100
00000001
,
00001000
00001000
00000100
00010000
00001000
00000000
00010000
00001000
,
00100000
01000000
00200000
00000000
02300000
00000000
23000000
00000000
,
00020000
00000000
30030000
00000000
,
20010000
00000000
31000000
00010000
00001000
00010000
00000100
00010000
,
00010200
00000000
00000310
00000001
00002001
00000000
00003020
00000000
,
00000130
00000001
00000010
00000100
00001000
00000000
00000010
00000100
,
00000001
00000000
00000101
00000000
00001000
00001000
00000010
00000010
,
00000210
00000000
00000301
00000010
00001000
00010000
00001000
00010000
,
00012000
00000000
01003000
00100000
10200000
00000000
20300000
00000000
,
30100000
00010000
00100000
10000000
00010000
00000000
00100000
01000000
,
11000000
00000000
10010000
00000000
00010000
00010000
10000000
10000000
,
00010000
10000000
02000000
00000000
03100000
00001000
00020000
00000000
,
00031000
00010000
00000100
00000010
00000100
00000100
00001000
00000000
,
00000012
00000000
00000103
00000000
00002010
00000000
00003100
00010000
,
00021000
00000000
01030000
01000000
00100000
00010000
10000000
10000000
,
10000000
00100000
00010000
00100000
10000000
01000000
00100000
01000000
,
00100000
00010000
01000000
00001000
00010000
00000000
00001000
00010000
,
00002000
00003200
00000320
00002030
,
00000002
00000000
00000000
00000000
00000000
00000000
00000000
00000000
00003003
00000000
00000000
00000000
00000000
00000000
00000001
00000010
,
00000200
00000000
00000000
00000000
00001000
00000000
00000000
00000000
00001300
00000000
00000000
00000000
00000001
00000000
00001000
00000010
,
00000200
00000000
00000001
00000000
00000301
00000000
00000100
00000010
,
00020000
00000000
00032000
00000000
00103000
01000000
00100000
01000000
,
10000000
11000000
00120000
00000000
,
20030000
00000000
30010000
00100000
01000000
00010000
01000000
10000000
,
00020000
01030000
02000000
03001000
,
00010000
00000100
00001000
00000010
00000200
00000000
00000301
00001000
,
00000001
00000000
00000011
00000000
00000001
00000010
00001000
00000010
,
00000001
00000000
00001000
00000100
00000010
00000100
00010000
00001000
,
02000000
03100000
20000000
32000000
,
03100000
00010000
01000000
00100000
10000000
00000000
00010000
01000000
,
00200000
00000000
20300000
00000000
30010000
00010000
10000000
20000000
,
00000000
30000000
00000000
00000000
;
