#TITLE:MOBO MOGA;
#SUBTITLE:;
#ARTIST:Orange Lounge;
#TITLETRANSLIT:;
#SUBTITLETRANSLIT:;
#ARTISTTRANSLIT:;
#GENRE:;
#CREDIT:;
#MUSIC:MOBO MOGA.mp3;
#BANNER:MOBO MOGA.png;
#BACKGROUND:MOBO MOGA-bg.png;
#CDTITLE:;
#SAMPLESTART:28.314;
#SAMPLELENGTH:12.558;
#SELECTABLE:YES;
#OFFSET:-0.407;
#BPMS:0.000=172.000;
#STOPS:;
#DISPLAYBPM:172.000;
#BGCHANGES:;
#FGCHANGES:;

//--------------- dance-single - HellKiteChaos ----------------
#NOTES:
     dance-single:
     HellKiteChaos:
     Challenge:
     13:
     0,0,0,0,0:
0000
0000
0000
0000
,
0000
0000
0000
0000
,
0000
0000
0000
0000
,
0000
0000
0000
0000
,
1000
0000
2000
0000
3100
0200
0000
0010
,
0000
0001
0000
0010
0000
1300
0000
0000
,
1000
0000
0002
0000
0103
0200
0000
0010
,
0000
1000
0000
0010
0000
0301
0000
0000
,
1000
0000
0200
0000
0310
0020
0000
0100
,
0000
1000
0000
0100
0000
0031
0000
1000
,
0001
0000
0000
1000
0100
0000
0100
0000
0000
0010
0001
0000
0001
0000
0100
0000
,
0010
0000
0000
0100
0010
0000
0010
0000
0000
1000
0001
0000
1000
0001
1000
0000
,
0001
1000
0000
0100
1000
0001
0000
0100
,
0100
0001
1000
0100
0010
0100
0010
0100
,
1000
0001
0000
0100
0001
1000
0000
0100
,
0010
0010
0001
1000
0001
1000
0010
0100
,
0001
0010
0000
0100
1000
0001
0000
0100
,
0010
0010
1000
0001
0100
0010
1000
0001
,
0010
0100
0100
0100
0010
0100
0100
0100
,
0110
0000
0000
0010
0001
0000
0001
0000
0000
1000
0100
0000
1000
0001
1000
0000
,
0001
0000
0000
0000
1000
0000
0001
0100
0001
0100
0001
0000
1000
0000
0000
0000
,
0001
0000
0000
0000
1000
0000
0001
0000
1000
0100
1000
0000
1100
0000
0000
0000
,
1000
0000
0000
0000
0001
0000
1000
0100
1000
0100
1000
0000
0001
0000
0000
0000
,
1000
0000
0000
0000
0001
0000
1000
0000
0001
0100
0001
0000
0101
0000
0000
0000
,
1000
0000
0000
0000
0001
0000
0100
0010
0100
0010
0100
0000
0001
0000
0000
0000
,
1000
0000
0000
0000
0001
0000
0010
0000
0100
0010
0100
0000
0110
0000
0000
0000
,
0001
0000
0000
0000
1000
0000
0100
0010
0100
0010
0100
0000
1000
0000
0000
0000
,
0001
0000
0000
0000
1000
0000
0010
0000
0100
0010
0100
0000
0110
0000
0000
0000
,
0010
0100
1000
0200
0000
0301
1000
0100
,
0010
0000
0001
0010
1000
0020
0000
0030
,
0001
1000
0100
0020
0000
0031
1000
0010
,
0001
0000
0010
1000
0001
0200
0000
0300
,
0010
0100
0001
2000
0000
3100
0001
0100
,
1000
0000
0001
0100
0010
1000
0000
0001
,
0101
0100
0100
0100
0010
1000
1000
1000
,
1100
0000
0000
0000
0000
0000
0000
0000
0100
0000
0000
0010
0001
0000
0001
0000
,
1000
0100
0110
0010
0001
1001
0001
0100
,
0010
1000
1001
1000
0100
0110
0010
0100
,
1100
1000
1001
0001
0100
0010
0100
0001
,
1001
1000
0001
0100
0110
0010
1010
0000
,
1000
0000
1100
0100
0100
0010
0011
1100
,
0000
0000
1100
0000
0011
0000
0000
0000
1001
0000
0000
0000
0001
0000
0010
0001
,
0100
0001
1001
1000
0100
1100
1000
0001
,
0101
0100
0110
0000
0100
0000
0001
0010
,
1000
0010
0110
0001
0010
0110
0100
1000
,
0001
1000
1001
1000
0010
0110
0100
0010
,
1010
1000
1001
0001
0010
0100
0010
0001
,
1001
1000
0001
0010
0110
0100
1100
0000
,
1000
0000
1010
0010
0010
0100
0101
1010
,
0000
0000
1010
0000
0101
0000
0000
0000
1001
0000
0000
0000
0001
0000
0100
0001
,
0010
0001
1001
1000
0010
1010
1000
0001
,
0110
0000
0000
1001
0000
0000
0000
0000
,
1100
1100
1100
1100
1100
0000
0101
0101
,
0101
0101
0101
0000
0011
0011
0011
0011
,
0011
0000
0000
0000
0010
0000
0001
1000
0001
0000
0100
0000
0010
0100
0010
0000
,
1000
0000
0000
0001
0100
0000
0100
0000
0000
0010
1000
0000
1000
0000
0001
0000
,
2002
3003
0220
0330
,
0000
2002
0000
0000
,
0000
0000
3003
0000
;

//--------------- dance-double - HellKiteChaos ----------------
#NOTES:
     dance-double:
     HellKiteChaos:
     Challenge:
     13:
     0,0,0,0,0:
00000000
00000000
00000000
00000000
,
00000000
00000000
00000000
00000000
,
00000000
00000000
00000000
00000000
,
00000000
00000000
00000000
00000000
,
00002000
00000000
00013000
00000000
00001000
00200000
00000000
01000000
,
00000000
10000000
00000000
01000000
00000000
00320000
00000000
00000000
,
10030000
00000000
00200000
00000000
01300000
02000000
00000000
00100000
,
00000000
10000000
00000000
00100000
00000000
03002000
00000000
00000000
,
00013000
00000000
00000020
00000000
00000100
00000230
00000000
00000010
,
00000000
00000001
00000000
00001000
00000000
00000301
00000001
00000100
,
00000010
00000000
00000000
00000010
00000100
00000000
00000100
00000000
00000000
00000010
00001000
00000000
00001000
00000000
00000100
00000000
,
00010000
00000000
00000000
00001000
01000000
00000000
01000000
00000000
00000000
00100000
10000000
00000000
00010000
10000000
00010000
00000000
,
10000000
01000000
00000000
01000000
10000000
00010000
00000000
01000000
,
01000000
00010000
10000000
01000000
00010000
00001000
00010000
00001000
,
00000010
00000001
00000000
00001000
00000001
00000100
00000000
00000100
,
00000010
00000010
00000100
00001000
00010000
00100000
10000000
00010000
,
10000000
01000000
00000000
01000000
10000000
00010000
00000000
01000000
,
00100000
00100000
10000000
01000000
00100000
01000000
00100000
00001000
,
00010000
00000100
00000100
00000100
00000010
00000100
00000100
00000100
,
00000110
00000000
00000000
00000010
00000001
00000000
00000001
00000000
00000000
00001000
00000100
00000000
00010000
00001000
00010000
00000000
,
00001000
00000000
00100000
00000000
00000000
00000000
00010000
00000000
10000000
01000000
10000000
00000000
00010000
00000000
01000000
00000000
,
00010000
00000000
01000000
00000000
00000000
00000000
00100000
00000000
10000000
00010000
10000000
00000000
00010000
00000000
01000000
00000000
,
00001000
00000000
00010000
00000000
00000000
00000000
00001000
00000000
00010000
00000100
00010000
00000000
00001000
00000000
00010000
00000000
,
00000010
00000000
00001000
00000000
00000000
00000000
00000010
00000000
00000100
00000010
00000100
00000000
00000110
00000000
00000000
00000000
,
00000010
00000000
00001000
00000000
00000000
00000000
00000001
00000000
00000010
00000100
00000010
00000000
00000100
00000000
00001000
00000000
,
00000100
00000000
00010000
00000000
00000000
00000000
00001000
00000000
00010000
00001000
00010000
00000000
00011000
00000000
00000000
00000000
,
00001000
00000000
01000000
00000000
00000000
00000000
00100000
00000000
10000000
00010000
10000000
00000000
01000000
00000000
00100000
00000000
,
00010000
00000000
01000000
00000000
00100000
00000000
10000000
00000000
00010000
01000000
00010000
00000000
10010000
00000000
00000000
00000000
,
00010000
01000000
10000000
02000000
00000000
03010000
10000000
01000000
,
00200000
00000000
00310000
00001000
00000100
00000020
00000000
00000030
,
00001000
00000001
00000010
00000200
00000000
00001300
00000001
00000100
,
00001000
00000000
00010000
00100000
10000000
00020000
00000000
00030000
,
10000000
01000000
00100000
00020000
00000000
01030000
00100000
01000000
,
00002000
00000000
00013000
00001000
00010000
00000100
00010000
00001000
,
01001000
01000000
01000000
01000000
00100000
10000000
10000000
10000000
,
11000000
00000000
00000000
00000000
00000000
00000000
00000000
00000000
01000000
00000000
00000000
00100000
00010000
00000000
00010000
00000000
,
10000000
01000000
01100000
00100000
00001000
00011000
00010000
00000010
,
00000100
00000001
00001001
00000001
00000010
00000110
00000100
00000010
,
00000011
00000001
00001001
00001000
00000100
00010000
00001000
00100000
,
00110000
00100000
00010000
01000000
01100000
00100000
10100000
00000000
,
10000000
00000000
11000000
01000000
01000000
00100000
00110000
11000000
,
00000000
00000000
11000000
00000000
00101000
00000000
00000000
00000000
00011000
00000000
00000000
00000000
00010000
00000000
00000100
00001000
,
00000010
00001000
00001001
00000001
00000010
00000011
00000001
00001000
,
00001010
00000010
00000110
00000000
00000010
00000100
00001000
00010000
,
00100000
10000000
10100000
10000000
00100000
01100000
01000000
00010000
,
10000000
00010000
10010000
10000000
00100000
01100000
01000000
00100000
,
10100000
10000000
10010000
00010000
00100000
00001000
00010000
00000100
,
00001100
00000100
00001000
00000100
00000110
00000010
00000011
00000000
,
00000001
00000000
00000101
00000100
00000100
00000010
00001010
00000101
,
00000000
00000000
00000101
00000000
00010010
00000000
00000000
00000000
00011000
00000000
00000000
00000000
00001000
00000000
01000000
00010000
,
00100000
00010000
10010000
10000000
00100000
10100000
10000000
00010000
,
01100000
00000000
00000000
10010000
00000000
00000000
00000000
00000000
,
11000000
11000000
11000000
11000000
11000000
00000000
01010000
01010000
,
01010000
01010000
01010000
00000000
00011000
00011000
00011000
00011000
,
00011000
00000000
00000000
00000000
00001000
00000000
00010000
00001000
00010000
00000000
00000100
00000000
00000010
00000100
00000010
00000000
,
00000001
00000000
00000000
00000100
00000010
00000000
00000010
00000000
00000000
00001000
00000100
00000000
00000100
00000000
00010000
00000000
,
00022000
00033000
02002000
03003000
,
00000000
02000200
00000000
00000000
,
00000000
00000000
03000300
00000000
;
