#VERSION:0.83;
#TITLE:MAX 300;
#SUBTITLE:;
#ARTIST:Ω;
#TITLETRANSLIT:;
#SUBTITLETRANSLIT:;
#ARTISTTRANSLIT:OMEGA;
#GENRE:;
#CREDIT:;
#MUSIC:MAX 300.mp3;
#BANNER:MAX 300.png;
#BACKGROUND:MAX 300-bg.png;
#CDTITLE:;
#SAMPLESTART:13.630;
#SAMPLELENGTH:12.000;
#SELECTABLE:YES;
#OFFSET:-0.872;
#BPMS:0.000=300.080
,286.000=200.000
,287.000=150.000
,288.000=125.000
,288.500=100.000
,289.000=75.000
,289.500=50.000
,290.000=300.000
;
#STOPS:290.000=1.150;
#SPEEDS:0.000=1.000=0.000=0;
#SCROLLS:0.000=1.000;
#TICKCOUNTS:0.000=4;
#TIMESIGNATURES:0.000=4=4;
#LABELS:0.000=Song Start;
#COMBOS:0.000=1;
#DISPLAYBPM:300.000;
#ORIGIN:;
#PREVIEWVID:;
#JACKET:;
#CDIMAGE:;
#DISCIMAGE:;
#BGCHANGES:;
#FGCHANGES:;

//--------------- dance-single - HellKiteChaos ----------------
#NOTEDATA:;
#STEPSTYPE:dance-single;
#DESCRIPTION:HellKiteChaos;
#DIFFICULTY:Challenge;
#METER:16;
#RADARVALUES:0,0,0,0,0;
#NOTES:
0000
0000
0000
0000
,
0000
0000
0000
0000
,
0000
0000
0000
0000
,
0000
0000
0000
0000
,
1000
0000
0001
0100
0001
0100
0000
0010
,
1000
0000
0001
0010
0001
0010
0000
0100
,
1000
0000
0001
1000
0001
1000
0000
0010
,
0100
0010
1001
0000
,
1000
0000
0001
0100
0001
0100
0010
1000
,
0010
0000
1000
0100
1000
0100
0010
0001
,
0010
0000
0001
0100
0010
1000
0100
0010
,
0001
0100
1001
0000
,
1000
0000
0001
0100
0001
0100
0001
0100
,
0001
0000
1000
0100
1000
0100
1000
0100
,
0010
0001
0010
0000
0100
1000
0100
0000
,
1000
0010
0100
0001
0010
0100
1000
0001
,
0020
0000
0130
0000
1000
0100
0000
1000
,
0200
0000
0310
0000
0001
0100
0000
0001
,
0200
0000
0310
0000
1000
0001
0000
1000
,
0001
0100
0001
0010
0001
1000
0010
1000
,
0200
0000
0310
0000
0001
0010
0000
0001
,
0020
0000
0130
0000
1000
0010
0000
1000
,
0020
0000
0130
0000
0001
1000
0000
0001
,
1000
0100
1000
0010
1000
0001
0010
0001
,
0200
0000
0310
0000
1000
0001
0000
1000
,
0200
0000
0310
0000
0001
1000
0000
0001
,
0200
0000
0310
0000
1000
0100
0000
0010
,
0001
0100
0001
1000
0100
1000
0010
1000
,
0001
0000
1000
0000
0001
0100
0000
0001
,
1000
0000
0001
0000
1000
0100
0000
1000
,
0001
0000
0001
1000
0000
0000
1001
0000
,
1000
0100
0010
0001
0100
0010
1000
0001
,
0100
0000
0010
0000
0100
0010
1000
0000
,
0001
0000
1000
0000
0100
0010
0001
0000
,
1000
0000
0001
0000
1000
0001
0100
0000
,
0001
0000
1000
0000
0001
0010
0100
0000
,
1000
0000
0001
0000
0100
0010
1000
0000
,
0100
0010
0001
0000
1000
0001
1000
0001
,
1000
0000
0001
0100
0001
0000
1000
0010
,
1000
0001
1000
0100
,
0010
0000
0001
1000
0001
0000
0100
0010
,
0100
0001
0010
0100
,
1000
0000
0001
1000
0001
1000
0001
0000
,
0100
0010
1001
0000
,
1000
0000
0010
0100
0001
0100
0001
0000
,
1000
0000
0001
0010
0001
0010
0100
0000
,
1000
0000
0010
0100
0010
1000
0001
0000
,
0100
0000
0001
0100
0010
1000
0010
0000
,
1000
0000
0001
0010
0001
1000
0100
0010
,
0100
0010
0001
0000
1000
0001
1000
0001
,
1000
0000
0001
0000
0100
0001
0100
0001
,
1000
0000
0100
0000
1000
0010
1000
0010
,
1000
0000
0001
0000
0010
0100
0010
0100
,
0010
0000
0001
0000
0100
0001
0100
0001
,
0100
0000
0010
1000
0001
0000
0100
0000
,
0110
0010
2002
3003
,
1000
0000
0001
0100
0001
0010
0000
0001
,
0100
0000
0010
1000
0010
1000
0000
0010
,
0100
0000
0001
1000
0010
0100
0000
0001
,
1000
1100
0101
0000
,
0001
0000
1000
0010
1000
0100
0000
1000
,
0010
0000
0100
0001
0100
0001
0000
0100
,
0010
0000
1000
0001
0100
0010
0000
1000
,
0100
0101
1100
0000
,
1000
0000
0001
0100
0001
1000
0001
0010
,
0100
0000
1000
0100
1000
0001
1000
0010
,
0100
0000
0001
0010
0100
1000
0010
0100
,
0001
0101
1100
0000
,
1001
0000
0001
0100
0001
0100
0010
1000
,
0001
0000
1000
0100
1000
0100
0010
0001
,
1000
0000
0100
0000
0001
0000
0100
0000
1000
0000
0010
0000
,
0001
0000
0010
0000
1000
0000
2002
0000
0000
0000
0000
0000
,
0000
0000
0000
0000
3003
0000
1000
0100
,
0010
0001
1000
0001
1000
0010
0100
0001
,
1000
0001
1000
0001
0100
0001
1000
0000
,
0001
0010
0100
1000
0001
0000
1000
0010
,
0100
0001
1000
0000
0001
0010
0100
1000
,
0010
0100
0010
0100
0001
1000
0001
0000
,
1000
0100
0010
0100
1000
0000
0010
0100
,
0001
0100
0010
0000
1000
0001
1000
0001
,
0100
0001
1000
0000
0010
0000
1000
0100
,
0001
0100
1000
0000
0100
1000
0010
1000
,
0100
0000
1000
0010
0001
0010
1000
0000
,
0010
1000
0100
1000
0010
0000
0100
0001
,
0010
0001
0100
0000
0001
0100
1000
0100
,
0001
0000
0100
0001
0010
0001
0100
0000
,
0001
0010
1000
0010
0001
0000
0100
0001
,
0010
0100
1000
0000
0010
0100
0001
1000
,
0010
0100
0001
1000
0100
0010
0001
0000
,
1000
0010
0000
1000
0010
0000
0100
0000
,
2001
0000
0000
3002
0000
0000
1003
0000
,
0001
0010
0000
0001
0010
0000
0100
0000
,
1002
0000
0000
2003
0000
0000
3001
0000
,
1000
0100
1000
0100
1000
0000
0001
0000
,
0100
0010
0100
0010
0100
0000
0001
0000
,
1000
0001
1000
0001
1000
0000
0100
0000
,
0110
0000
0000
1001
0000
0000
1000
0010
,
1000
0010
0100
0001
0100
0000
0001
0010
,
0001
0010
0100
1000
0100
0000
1000
0001
,
1000
0001
0100
0010
1000
0000
0100
0010
,
0100
0010
0001
1000
0001
0000
0100
0010
,
1000
0001
1000
0100
0010
0001
0100
0010
,
1000
0000
0000
0100
0000
0000
0010
0000
0000
0001
0000
0000
0100
0000
0000
0010
0000
0000
1000
0000
0000
0000
1000
0000
,
0000
1000
0000
0000
0000
0000
0000
0000
0000
0001
0000
0001
,
0000
0001
0000
0000
0000
0000
0000
0000
0000
0010
0000
0010
,
0000
0010
0000
0100
0000
0100
0000
0100
0000
2002
0000
0000
,
0000
0000
0000
3003
;

//--------------- dance-double - HellKiteChaos ----------------
#NOTEDATA:;
#STEPSTYPE:dance-double;
#DESCRIPTION:HellKiteChaos;
#DIFFICULTY:Challenge;
#METER:16;
#RADARVALUES:0,0,0,0,0;
#NOTES:
00000000
00000000
00000000
00000000
,
00000000
00000000
00000000
00000000
,
00000000
00000000
00000000
00000000
,
00000000
00000000
00000000
00000000
,
00010000
00000000
00000100
00001000
00000100
00001000
00000000
00000001
,
00000010
00000000
00000001
00000100
00000001
00000100
00000000
00000010
,
00010000
00000000
00001000
00010000
00001000
00010000
00000000
00001000
,
00100000
01000000
01100000
00000000
,
10000000
00000000
00010000
00100000
00010000
00100000
00000000
01000000
,
10000000
00000000
00010000
01000000
00010000
01000000
00000000
00001000
,
00010000
00000000
00000100
00000010
00000100
00000010
00000000
00000001
,
00001000
00000010
00000110
00000000
,
00000100
00000000
00000001
00000100
00000001
00000100
00000001
00000100
,
00000001
00000000
00001000
00000100
00001000
00000100
00001000
00000100
,
00010000
00001000
00010000
00000000
00001000
00010000
00001000
00000000
,
00010000
00000100
00000010
00000001
00000100
00000010
00001000
00000001
,
00000100
00000000
00000010
00010000
00000010
00010000
00000000
00000001
,
00000100
00000000
00000010
00010000
00000010
00010000
00000000
00000001
,
00000100
00000000
00000010
00001000
00000010
00001000
00000000
00000100
,
00010000
00001000
00010000
00001000
01000000
00001000
01000000
00100000
,
10000000
00000000
01000000
00100000
01000000
00100000
00000000
00010000
,
10000000
00000000
01000000
00100000
01000000
00100000
00000000
00010000
,
10000000
00000000
00100000
01000000
00100000
01000000
00000000
00010000
,
01000000
00001000
00010000
00001000
00010000
00000100
00001000
00000100
,
00000010
00000000
00000001
00000010
00000001
00000010
00000000
00000100
,
00001000
00000000
00000001
00000010
00000001
00000010
00000000
00000100
,
00010000
00000000
00000001
00000010
00000001
00000010
00000000
00000100
,
00010000
00000100
00010000
00001000
01000000
00001000
01000000
00100000
,
10000000
00000000
00010000
01000000
00000000
00010000
10000000
00000000
,
01000000
00000000
00100000
00001000
00000000
00010000
00001000
00010000
,
00000100
00000000
00000010
00000100
00000000
00000100
00000010
00000000
,
00000100
00010000
00001000
01000000
00100000
10000000
01000000
00100000
,
00010000
00000000
00100000
00000000
00010000
00100000
00010000
00000000
,
01000000
00000000
00001000
00000000
01000000
00001000
01000000
00000000
,
00001000
00000000
00010000
00000000
00001000
00010000
00001000
00000000
,
00010000
00000000
00000100
00000000
00001000
00000100
00001000
00000000
,
00000001
00000000
00000100
00000000
00000010
00000100
00000010
00000000
,
00010000
00000010
00010000
00000000
00001000
01000000
00001000
01000000
,
00100000
00000000
10000000
00100000
10000000
00000000
00010000
01000000
,
00100000
10000000
00010000
00100000
,
01000000
00000000
10000000
01000000
10000000
00000000
00010000
00100000
,
01000000
00100000
00001000
00010000
,
00000100
00000000
00001000
00000001
00001000
00000001
00001000
00000000
,
00000001
00000100
00000110
00000000
,
00000100
00000000
00000001
00000100
00000001
00000100
00000010
00000000
,
00001000
00000000
00000010
00010000
00000010
00010000
00001000
00000000
,
00100000
00000000
01000000
10000000
01000000
10000000
00010000
00000000
,
01000000
00000000
00010000
00100000
00010000
00100000
00001000
00000000
,
00010000
00000000
00001000
00010000
00001000
00010000
00000100
00001000
,
00000100
00001000
00000010
00000000
00000100
00000010
00000100
00000010
,
00000100
00000000
00000001
00000000
00001000
00000100
00001000
00000001
,
00000010
00000000
00000100
00000000
00010000
00000100
00001000
00000100
,
00010000
00000000
00001000
00000000
00100000
00010000
01000000
00010000
,
00100000
00000000
01000000
00000000
10000000
00010000
10000000
00010000
,
01000000
00000000
00100000
10000000
00100000
00000000
01000000
00010000
,
01000000
00001000
00021000
00030000
,
00001000
00000000
00010000
00000100
00010000
00000100
00000000
00000100
,
00000010
00000000
00000001
00000010
00000001
00001000
00000000
00001000
,
00000010
00000000
00000100
00000010
00000100
00000001
00000000
00000001
,
00001000
00000100
00000110
00000000
,
00000100
00000000
00010000
00000100
00010000
00000100
00000000
00000100
,
00010000
00000000
00001000
00100000
00001000
00100000
00000000
00100000
,
01000000
00000000
01000000
10000000
01000000
00100000
00000000
00010000
,
10000000
00100000
01100000
00000000
,
01000000
00000000
00010000
01000000
00010000
10000000
00010000
00100000
,
01000000
00000000
00100000
01000000
00100000
00001000
00010000
00001000
,
00010000
00000000
00001000
00000100
00001000
00000100
00000010
00001000
,
00000010
00001000
00001001
00000000
,
00000001
00000000
00001000
00000100
00001000
00000100
00001000
00000100
,
00001000
00000000
00000001
00000100
00000001
00000100
00000001
00000100
,
00000001
00000000
00000100
00000000
00001000
00000000
00010000
00000000
00100000
00000000
10000000
00000000
,
01000000
00000000
00100000
00000000
00010000
00000000
20020000
00000000
00000000
00000000
00000000
00000000
,
00000000
00000000
00000000
00000000
30030000
00000000
10000000
00010000
,
10000000
00010000
01000000
00010000
00100000
01000000
10000000
00100000
,
01000000
00001000
00010000
00001000
00010000
00000100
00001000
00000000
,
00000001
00000010
00000001
00000010
00000001
00000000
00000100
00000010
,
00000100
00000010
00001000
00000000
00000001
00001000
00000001
00001000
,
00000100
00001000
00000100
00000010
00000001
00000100
00000010
00000000
,
00001000
00000100
00001000
00000100
00010000
00000000
00001000
00010000
,
00001000
01000000
00010000
00000000
10000000
00010000
10000000
00010000
,
10000000
00010000
10000000
00000000
01000000
00000000
00100000
00010000
,
01000000
00010000
00100000
00000000
00001000
01000000
00001000
00100000
,
00001000
00000000
00010000
00000100
00010000
00000010
00010000
00000000
,
00000100
00001000
00000010
00001000
00000100
00000000
00000010
00000001
,
00000100
00000001
00000010
00000000
00000100
00001000
00000010
00001000
,
00000100
00000000
00010000
00000010
00001000
00000010
00010000
00000000
,
00001000
01000000
00010000
01000000
00001000
00000000
00010000
00001000
,
01000000
00100000
10000000
00000000
00010000
00100000
01000000
10000000
,
00100000
01000000
00001000
00010000
00000100
00000010
00000001
00000000
,
00001000
00000001
00000000
00000001
00001000
00000000
00000010
00000000
,
00000210
00000000
00000000
00000302
00000000
00000000
00001003
00000000
,
00000100
00010000
00000000
00000100
00010000
00000000
00001000
00000000
,
02001000
00000000
00000000
03200000
00000000
00000000
10300000
00000000
,
00100000
01000000
00100000
10000000
00010000
00000000
10000000
00000000
,
01000000
00100000
01000000
10000000
00010000
00000000
01000000
00000000
,
00100000
01000000
00001000
00010000
00001000
00000000
00010000
00000000
,
00021000
00000000
00000000
00030200
00000000
00000000
00000310
00000000
,
00000001
00000010
00000001
00000010
00000100
00001000
00000100
00000000
,
00010000
00001000
00010000
00001000
01000000
00010000
01000000
00000000
,
00100000
10000000
00010000
01000000
00100000
10000000
00010000
00000000
,
10000000
01000000
00100000
00010000
10000000
00010000
10000000
01000000
,
00100000
00010000
00100000
00001000
00010000
00000100
00001000
00000010
,
00001000
00000000
00000000
00000001
00000000
00000000
00000100
00000000
00000000
00000010
00000000
00000000
00001000
00000000
00000000
00000100
00000000
00000000
00000010
00000000
00000000
00000000
00000010
00000000
,
00000000
00000010
00000000
00000000
00000000
00000000
00000000
00000000
00000000
00000100
00000000
00000100
,
00000000
00000100
00000000
00000000
00000000
00000000
00000000
00000000
00000000
00010000
00000000
00010000
,
00000000
00010000
00000000
00001000
00000000
00001000
00000000
00001000
00000000
00022000
00000000
00000000
,
00000000
00000000
00000000
00033000
;
