#VERSION:0.83;
#TITLE:La SeƱorita Virtual;
#SUBTITLE:;
#ARTIST:2MB;
#TITLETRANSLIT:;
#SUBTITLETRANSLIT:;
#ARTISTTRANSLIT:;
#GENRE:;
#CREDIT:;
#MUSIC:La Senorita Virtual.mp3;
#BANNER:La Senorita Virtual.png;
#BACKGROUND:La Senorita Virtual-bg.png;
#CDTITLE:;
#SAMPLESTART:26.400;
#SAMPLELENGTH:12.000;
#SELECTABLE:YES;
#OFFSET:-0.070;
#BPMS:0.000=182.169;
#STOPS:;
#SPEEDS:0.000=1.000=0.000=0;
#SCROLLS:0.000=1.000;
#TICKCOUNTS:0.000=4;
#TIMESIGNATURES:0.000=4=4;
#LABELS:0.000=Song Start;
#COMBOS:0.000=1;
#DISPLAYBPM:182.000;
#ORIGIN:;
#PREVIEWVID:;
#JACKET:;
#CDIMAGE:;
#DISCIMAGE:;
#BGCHANGES:;
#FGCHANGES:;

//--------------- dance-single - HellKiteChaos ----------------
#NOTEDATA:;
#STEPSTYPE:dance-single;
#DESCRIPTION:HellKiteChaos;
#DIFFICULTY:Hard;
#METER:12;
#RADARVALUES:0,0,0,0,0;
#NOTES:
0000
0000
0000
0000
,
0000
0000
0000
0000
,
0000
0000
0000
0000
,
0000
0000
0000
0000
,
0000
0000
0000
0000
,
1000
0100
0001
0000
1000
0010
0001
0000
,
1000
0001
1000
0001
2001
0000
3001
0000
,
0001
0100
1000
0000
0001
0010
1000
0000
,
0001
1000
0001
1000
1002
0000
1003
0000
,
0001
0010
1000
0000
0001
0100
1000
0000
,
0001
1000
0010
0100
0210
0000
0301
0000
,
1000
0100
0001
0000
1000
0010
0001
0000
,
1000
0001
0010
0100
0110
0000
1001
0000
,
0001
1000
0100
0000
1000
0001
0010
0000
,
0001
0010
0001
1000
0010
1000
0001
0010
,
0100
1000
0100
0000
0010
0001
0100
0010
,
0000
1000
0001
0100
0010
0100
0010
0100
,
0001
0100
1000
0100
,
0001
0000
0010
0100
1000
0100
0010
0100
,
1000
0001
0000
0100
0010
1000
0000
0001
,
0100
0010
0100
0010
,
0101
0110
0101
1010
,
1100
0000
0011
0001
1000
0000
1010
0000
,
0101
0000
0000
0010
0100
0000
0110
0000
,
0000
0100
0100
0100
0010
0000
1001
0000
,
0001
0100
0001
0000
1000
0100
1000
0000
,
0001
0010
0100
0100
0100
0000
1100
0000
,
1000
0100
1000
0000
0001
0100
0001
0000
,
1000
0010
0100
0100
0100
0000
0101
0000
,
1000
0010
0100
0010
1000
0000
0001
0000
,
1000
0001
0100
0001
1000
0100
1000
0001
,
0100
0000
0010
0000
0100
0000
0010
1000
,
0000
1000
0000
1000
0200
0000
0310
0000
,
0001
0000
0010
0001
0100
0000
0010
1000
,
0100
0000
0010
0010
0010
0000
0001
0000
,
1000
0000
0010
1000
0100
0000
0010
0001
,
0100
0000
0010
0010
0010
0000
1000
0000
,
0001
0100
0100
0001
0100
0100
0001
0000
,
1000
0100
1000
1000
1000
0000
0001
0000
,
1000
0001
0000
0100
0010
0000
1001
0000
,
0000
0010
0010
0010
1001
0000
1001
0000
,
1000
0010
1000
0010
0100
0010
0100
0010
,
1000
0100
0010
0010
0010
0000
0110
0000
,
0001
0010
0001
0010
0100
0010
0100
0010
,
0100
1000
0001
0001
0001
0000
0101
0000
,
0100
0010
0100
0001
0100
0010
0100
0000
,
0010
1000
0001
0001
0001
0100
1000
0100
,
0001
1000
0100
0000
1000
0001
0100
0010
,
0000
0010
0000
0010
0100
0010
0100
0001
,
1000
0000
0000
0000
,
0000
0000
0000
0000
,
0000
0000
0000
0000
,
0000
0000
0000
0000
,
2002
0000
0003
0000
,
0200
0300
0200
0300
,
0002
0000
0000
0003
,
0020
0030
0020
0030
,
3001
0000
1000
0100
0001
0000
1000
0010
,
0001
0000
1000
0001
2001
0000
3001
0000
,
1000
0000
0001
0100
1000
0000
0001
0010
,
1000
0000
0001
1000
1002
0000
1003
0000
,
0002
0000
0013
0100
2000
0000
3010
0100
,
0002
0000
1003
0100
0010
0100
1000
0001
,
0200
0000
0310
1000
0002
0000
0103
0010
,
2000
0000
3010
0100
0001
1000
0100
0010
,
0001
0010
0100
1000
0020
0000
0130
0010
,
2000
0000
3100
0010
0001
0010
0100
1000
,
0001
0100
0010
0100
0002
0000
0013
0100
,
0000
0100
0000
0100
1000
0010
0100
0002
,
0000
0000
0000
0000
,
0003
0000
0000
0000
;

//--------------- dance-single - HellKiteChaos ----------------
#NOTEDATA:;
#STEPSTYPE:dance-single;
#DESCRIPTION:HellKiteChaos;
#DIFFICULTY:Challenge;
#METER:13;
#RADARVALUES:0,0,0,0,0;
#NOTES:
0000
0000
0000
0000
,
0000
0000
0000
0000
,
0000
0000
0000
0000
,
0000
0000
0000
0000
,
0000
0000
0000
0000
,
0001
0010
0100
0000
1000
0010
0100
0000
,
0001
1000
0100
0010
0110
0000
2001
0000
,
3010
0100
0001
0000
0010
0100
1000
0000
,
0010
0100
0001
0010
0110
0000
1002
0000
,
0013
0001
0100
0100
0010
1000
0100
0100
,
0010
0001
0100
0010
0110
0000
1002
0000
,
1003
0001
0100
0100
0010
1000
0100
0100
,
0010
0001
0100
0010
0110
0000
1001
0000
,
1000
1000
0002
0000
0203
0000
0320
0000
,
1030
0100
0001
0100
1000
0010
1000
0100
,
0001
0100
1000
0000
0001
0100
0010
0110
,
0000
0101
0000
1010
1000
0001
0100
0010
,
1000
0001
0001
0010
,
0100
0010
0100
0010
0001
0010
0100
0010
,
0001
1000
0000
0010
0100
0001
0000
1000
,
0010
0101
1010
1001
,
1000
0100
1000
0001
1000
0010
1000
0100
,
1000
0001
0100
0100
0101
0000
0110
0000
,
1001
1000
0000
0010
0100
0000
1001
0000
,
0000
0100
0100
0100
0100
0000
1001
0000
,
1000
0100
0001
0100
1000
0010
0001
0010
,
0100
0010
0100
0100
0100
0000
1001
0000
,
0001
0100
1000
0100
0001
0010
1000
0010
,
0001
0010
0100
0100
0100
0000
1001
0000
,
1000
0100
0001
0100
1000
0000
0001
0000
,
1000
0010
0001
0010
0100
0010
1000
0001
,
1000
0001
0000
0010
0100
1000
0000
1100
,
0000
1010
0000
1001
0001
0100
0010
0010
,
0100
0010
1000
0100
0010
0000
0001
0100
,
0010
0000
1000
0100
0010
0001
0100
0010
,
1000
0001
0010
0100
1000
0000
0010
0100
,
0001
0000
0010
0100
1000
0010
0100
0001
,
1000
0100
0010
0100
0010
0000
0001
0100
,
0010
0000
1000
0100
0010
0100
0010
0001
,
1000
0001
0000
0100
0010
0000
1001
0000
,
0000
0100
0100
0100
0100
0000
1001
0000
,
1000
0100
1100
0000
1000
0001
1001
0000
,
1000
0010
0100
0100
0110
0000
1001
0000
,
0001
0100
0101
0000
0001
1000
1001
0000
,
0001
0010
0100
0100
0110
0000
1001
0000
,
1000
0100
0001
0100
1000
0010
0001
0010
,
1000
0100
0010
1000
0001
0100
0010
0001
,
0100
1000
0100
0001
1000
0010
0001
0010
,
1000
0100
1000
0010
0001
0010
1000
0100
,
0010
0000
0000
0000
,
0000
0000
0000
0000
,
0000
0000
0000
0000
,
0000
0000
0000
0000
,
1001
0000
0010
0100
0001
0000
0010
0100
,
1000
0000
0010
0100
0001
0000
1000
0000
,
0001
0000
1000
0100
0010
0000
0001
0100
,
0010
0000
1000
0100
0010
0000
0001
0000
,
2001
0000
3010
0100
0001
0000
0010
0100
,
1000
0000
1001
1001
1002
0000
0203
0000
,
0310
0000
0100
0010
1000
0000
0100
0010
,
0001
0000
1001
1001
2001
0000
3020
0000
,
0130
0001
0010
0001
0100
1000
0100
0001
,
0010
0100
0010
0001
0100
1000
0100
0010
,
1000
0001
0010
0100
1000
0010
0001
0010
,
1000
0100
0010
0100
1000
0010
0100
0001
,
0010
1000
0010
0001
0100
0001
0010
0100
,
0010
0001
0100
1000
0100
0001
0010
0100
,
1000
0100
0010
0010
0001
0100
0010
0020
,
0000
2030
0000
3001
0100
1000
0010
0002
,
0000
0000
0000
0000
,
0003
0000
0000
0000
;

//--------------- dance-double - HellKiteChaos ----------------
#NOTEDATA:;
#STEPSTYPE:dance-double;
#DESCRIPTION:HellKiteChaos;
#DIFFICULTY:Challenge;
#METER:13;
#RADARVALUES:0,0,0,0,0;
#NOTES:
00000000
00000000
00000000
00000000
,
00000000
00000000
00000000
00000000
,
00000000
00000000
00000000
00000000
,
00000000
00000000
00000000
00000000
,
00000000
00000000
00000000
00000000
,
00001000
00010000
00001000
01000000
00100000
10000000
01000000
00000000
,
10000000
00010000
10000000
02000000
00000000
00100000
03100000
00000000
,
00001000
00010000
00000010
00000100
00000010
00001000
00000100
00000000
,
00000010
00000001
00000010
00000002
00000000
00001000
00001003
00000000
,
00000001
00000100
00000010
00000100
00000001
00001000
00000001
00001000
,
00000100
00000010
00000001
00000100
00000010
00010000
00001000
00000000
,
01000000
00100000
01000000
00100000
10000000
00010000
10000000
00010000
,
10000000
01000000
00100000
00001000
00010000
00001000
00010000
00000000
,
00021000
00000010
00000100
00030010
,
00010000
00001000
00100000
00010000
01000000
00001000
00100000
00010000
,
01000000
00100000
01000000
00000000
00010000
10000000
00010000
10000000
,
00000000
10010000
00000000
00010000
01000000
00001000
00010000
00000100
,
00000010
00000001
00000100
00001000
,
00010000
00100000
10000000
01000000
,
00010000
00001000
00000010
00000001
,
00001000
00001001
00011000
10010000
,
10000000
01000000
00010000
01000000
10000000
00100000
00010000
00100000
,
10000000
01000000
00100000
00010000
10010000
00000000
01100000
00000000
,
10010000
00000000
00000000
00001000
00010000
00000000
00011000
00000000
,
00000000
00001001
00001001
00001001
00000110
00000000
00001001
00000000
,
00000001
00000100
00000001
00000100
00000010
00010000
00000010
00010000
,
00001000
00100000
00001000
00100000
01000000
10000000
01000000
10000000
,
00010000
01000000
00010000
01000000
00001000
00010000
00001000
00010000
,
00000010
00000100
00000010
00000100
00000001
00001000
00000001
00001000
,
00000001
00000010
00000001
00000100
00000001
00000010
00000001
00000100
,
00000010
00001000
00000100
00000010
00000001
00000100
00000010
00010000
,
00001000
01000000
00001000
00100000
00001000
01000000
00001000
00100000
,
01000000
00100000
01000000
10000000
00100000
01000000
00100000
01000000
,
00010000
10000000
01000000
00100000
00010000
01000000
00100000
10000000
,
01000000
00100000
01000000
00100000
00010000
01000000
00010000
01000000
,
00001000
00010000
00001000
00000100
00001000
00010000
00001000
00000100
,
00000010
00001000
00000001
00001000
00000010
00000100
00000001
00000010
,
00000100
00001000
00000100
00001000
00000010
00010000
00000010
00010000
,
00001000
01000000
00001000
01000000
00100000
01000000
00100000
01000000
,
00010000
10000000
00010000
10000000
01000000
00100000
01000000
00100000
,
00001000
01000000
00001000
01000000
00010000
00000100
00000010
00001000
,
00000001
00001000
00000001
00000010
00000100
00001000
00000100
00000010
,
00000001
00001000
00000001
00001000
00000010
00000100
00000010
00000100
,
00000010
00010000
00000100
00010000
00000100
00100000
00010000
00100000
,
00010000
10000000
00100000
10000000
00100000
01000000
00100000
01000000
,
01100000
00011000
00000110
00001001
,
00000001
00000010
00000100
00000010
00000001
00000010
00000100
00000010
,
00000001
00000100
00001000
00000100
00000001
00000100
00001000
00000100
,
00000010
00001000
00000010
00001000
00000100
00010000
00000100
00010000
,
00001000
00000000
00000000
00000000
,
00000000
00000000
00000000
00000000
,
00000000
00000000
00000000
00000000
,
00000000
00000000
00000000
00000000
,
00002000
00000000
00000000
00000000
,
00000000
00000000
00000000
00000000
,
00020000
00000000
00000000
00000000
,
00000000
00000000
00000000
00033000
,
00001000
00000000
01000000
00100000
10000000
00000000
01000000
00010000
,
00001000
00000000
00000010
00000001
00001000
00000000
00000001
00000000
,
00000100
00000000
00000010
00001000
00010000
00000000
01000000
00100000
,
10000000
00000000
00010000
00100000
01000000
00000000
10000000
00000000
,
00100000
01000000
00100000
01000000
00001000
00100000
00001000
00100000
,
00000100
00010000
00000100
00010000
00000010
00000100
00000010
00000100
,
00000001
00000010
00000001
00000010
00000100
00010000
00000100
00010000
,
00001000
01000000
00001000
01000000
00100000
10000000
00100000
10000000
,
00010000
00100000
01000000
10000000
00100000
01000000
00001000
00010000
,
01000000
00010000
00001000
00000100
00000010
00001000
00000100
00000001
,
00000100
00000010
00001000
00000010
00000100
00010000
01000000
00100000
,
00010000
01000000
00100000
10000000
01000000
00100000
00010000
02000000
,
00000000
00000000
00000000
00000000
,
03000000
00000000
00000000
00000000
;
