#TITLE:LONG TRAIN RUNNIN';
#SUBTITLE:;
#ARTIST:BUS STOP;
#TITLETRANSLIT:;
#SUBTITLETRANSLIT:;
#ARTISTTRANSLIT:;
#GENRE:;
#CREDIT:;
#MUSIC:LONG TRAIN RUNNIN'.mp3;
#BANNER:LONG TRAIN RUNNIN'.png;
#BACKGROUND:LONG TRAIN RUNNIN'-bg.png;
#CDTITLE:;
#SAMPLESTART:0.000;
#SAMPLELENGTH:0.000;
#SELECTABLE:YES;
#OFFSET:-0.013;
#BPMS:0.000=126.615;
#STOPS:;
#DISPLAYBPM:126.000;
#BGCHANGES:;
#FGCHANGES:;

//--------------- dance-single - HellKiteChaos ----------------
#NOTES:
     dance-single:
     HellKiteChaos:
     Challenge:
     13:
     0,0,0,0,0:
0000
0000
0000
0000
,
0000
0000
0000
0000
,
0000
0000
0000
0000
,
0000
0000
0000
0000
,
0000
0000
0000
0000
1000
0000
0000
0010
0100
0000
0001
0000
1000
0000
0010
0100
,
0001
2000
0000
0000
3100
0000
0000
0010
0001
0000
1000
0000
0100
0000
0010
0001
,
1000
0200
0000
0000
0310
0000
0000
0001
1000
0000
0010
0000
0100
0000
0001
1000
,
0010
0200
0000
0000
0302
0000
0000
0000
0023
0000
0000
0000
0130
0000
0010
0000
,
1001
0000
0000
0000
1000
0000
0001
0010
0000
0001
0000
0010
0000
0000
0100
0010
,
0100
1000
0000
0000
0001
0000
0100
0010
0000
1000
0000
0010
0000
0000
0100
0010
,
0100
0001
0000
0000
1000
0000
0100
0000
0001
0000
0100
0000
1000
0000
0001
0000
,
1000
0000
0010
0100
0001
0000
1000
0000
0100
0010
0000
0010
0000
0000
0100
0010
,
0001
1000
0001
0100
0010
0000
0100
0000
0000
0001
0000
0000
1000
0000
0000
0010
,
0000
0000
2010
0000
0000
0000
3001
0000
0000
0010
0000
0000
0100
0000
0000
1000
,
0000
0000
1100
0000
0011
0000
0000
0001
0100
0000
0010
0000
0100
0000
0010
1000
,
0001
0100
0000
0000
0010
0000
0000
1000
0100
0000
0010
0000
0100
0000
0010
0001
,
1000
0100
0010
0001
0200
0000
0000
0000
0010
0000
0000
0000
1000
0000
0000
0000
,
0010
0001
0010
0302
,
0000
0000
1003
0100
0001
0100
1000
0010
,
0001
0000
0010
0000
1000
0100
0010
0100
0010
0001
1000
0001
2000
0000
0000
0000
,
3002
0000
0000
0000
0103
0000
0000
0010
0100
0000
0100
0000
0100
0000
0010
0100
,
0001
1000
0000
0100
0010
0000
0000
0001
1000
0000
0100
0000
0100
0000
0100
1000
,
0001
0010
0000
0100
1000
0000
0000
0001
1000
0000
0010
0000
1000
0000
0001
0010
,
0100
1000
0000
0001
1000
0000
0000
0010
0100
0000
0001
0000
1000
0000
0010
0100
,
0001
0010
0000
0000
0000
0000
0110
0000
0000
1100
0000
0000
0110
0000
0000
0011
,
0000
0000
0110
0000
0000
0000
1100
0000
0000
0110
0000
0000
1100
0000
0000
1001
,
0000
0000
0010
0000
1001
0000
0000
1000
0100
0000
0010
0000
0010
0000
0001
0100
,
0010
1000
0000
0001
0100
0000
0000
0010
1000
0000
1000
0000
1000
0000
0100
0000
,
0010
0001
1000
0100
1000
0100
0010
0100
,
0001
0100
1000
0010
1000
0010
0001
0010
,
1000
0000
0001
0000
0100
0000
0000
0000
0110
0000
0100
0000
0100
0000
0001
1000
,
0001
0010
0000
0100
1000
0000
0100
0000
0001
0000
0100
0000
1100
0000
0000
0000
,
0101
0000
2000
3020
2030
3020
2030
3000
,
0000
0001
0100
0001
0020
0000
0032
0000
0023
0000
0032
0000
0023
0000
0030
0000
,
0000
0000
0001
2000
0100
0000
0000
3100
0000
0010
0000
0100
0000
0010
0000
0001
,
0000
0000
0100
0010
1000
0000
0010
0100
0001
0000
1000
0000
0001
0000
1000
0000
,
0001
0010
0100
1000
0010
0000
0100
0000
0000
0001
0000
0000
0010
0000
0000
0001
,
0000
0000
0100
0000
0100
0000
0010
0000
0000
1000
0000
0000
0100
0000
0000
1000
,
0000
0000
0010
0000
0010
0000
0100
0010
0100
0000
0001
1000
0001
1000
0100
0010
,
0100
0000
0010
0000
0100
0000
0010
0001
1000
0000
1000
0000
1000
0000
0010
0100
,
0001
1000
0010
0100
0002
0000
0000
0000
0010
0000
0000
0000
1000
0000
0000
0000
,
0100
1000
0010
0100
,
1003
0000
0000
0000
1001
0000
0000
0001
0100
0000
0010
0000
0010
0000
1000
0001
,
1000
0100
0010
0000
0001
0000
0000
0100
0010
0000
0010
0000
0000
0010
1000
0001
,
0100
2002
0000
3003
;

//--------------- dance-double - HellKiteChaos ----------------
#NOTES:
     dance-double:
     HellKiteChaos:
     Challenge:
     13:
     0,0,0,0,0:
00000000
00000000
00000000
00000000
,
00000000
00000000
00000000
00000000
,
00000000
00000000
00000000
00000000
,
00000000
00000000
00000000
00000000
,
00000000
00000000
00000000
00000000
00010000
00000000
00000000
00001000
00010000
00000000
00000100
00000000
00000010
00000000
00000001
00001000
,
00000001
00000200
00000000
00000000
00000310
00000000
00000000
00010000
00001000
00000000
01000000
00000000
00100000
00000000
10000000
00010000
,
10000000
02000000
00000000
00000000
03100000
00000000
00000000
00001000
00010000
00000000
00010000
00000000
00001000
00000000
00010000
00001000
,
00010000
00002000
00000000
00000000
00003100
00000000
00000010
00000000
00000100
00000000
00000010
00000000
00001000
00000000
00000001
00000000
,
00001001
00000000
00000000
00000000
00000001
00000000
00000100
00000010
00000000
00001000
00000000
00000010
00000000
00000000
00001000
00000010
,
00010000
00002000
00000000
00000000
01003000
00000000
00100000
10000000
00000000
00100000
00000000
10000000
00000000
00000000
00100000
01000000
,
00100000
20000000
00000000
00000000
31000000
00000000
00010000
00000000
00001000
00000000
00000010
00000000
00000001
00000000
00000000
00000000
,
00001000
00000000
00000010
00000100
00000001
00000000
00001000
00000000
00000100
00000010
00000000
00000010
00000000
00000000
00000001
00000010
,
00000001
00001000
00000100
00001000
00000100
00000000
00020000
00000000
00000000
00032000
00000000
00000000
00203000
00000000
00000000
02300000
,
00000000
00000000
23000000
00000000
00000000
00000000
30020000
00000000
00000000
02030000
00000000
00000000
03002000
00000000
00000000
00023000
,
00000000
00000000
00030100
00000000
00001100
00000000
00000000
00000001
00000010
00000000
00000100
00000000
00000010
00000000
00000001
00001000
,
00000001
00000100
00000000
00000000
00000010
00000000
00000000
00000100
00000010
00000000
00010000
00000000
00001000
00000000
00100000
00010000
,
10000000
01000000
00100000
00010000
02000000
00000000
00000000
00000000
00100000
00000000
00000000
00000000
10000000
00000000
00000000
00000000
,
00100000
00010000
00001000
03020000
,
00000000
00000000
10030000
01000000
00010000
00001000
00000100
00000001
,
00000010
00000000
00000001
00000000
00000100
00000010
00001000
00000001
00000100
00000010
00001000
00000001
00000200
00000000
00000000
00000000
,
00000320
00000000
00000000
00000000
00010030
00000000
00000000
00001000
00010000
00000000
00001000
00000000
01000000
00000000
00100000
01000000
,
00100000
10000000
00000000
01000000
00100000
00000000
00000000
00010000
10000000
00000000
00010000
00000000
01000000
00000000
00001000
01000000
,
00001000
00010000
00000000
00000100
00000010
00000000
00000000
00000010
00000001
00000000
00000100
00000000
00000001
00000000
00001000
00000100
,
00000010
00000001
00000000
00001000
00000001
00000000
00000000
00000100
00000010
00000000
00001000
00000000
00000001
00000000
00000100
00000010
,
00001000
00000010
00000000
00000000
00001000
00000000
00000200
00000000
00000000
00020300
00000000
00000000
00032000
00000000
00000000
00103000
,
00000000
00000000
01100000
00000000
01000000
00000000
20000000
00000000
00000000
30020000
00000000
00000000
02030000
00000000
00000000
03200000
,
00000000
00000000
10300000
00000000
10010000
00000000
00000000
10000000
01000000
00000000
00100000
00000000
00100000
00000000
00010000
00100000
,
01000000
10000000
00000000
00010000
01000000
00000000
00000000
00100000
10000000
00000000
00010000
00000000
10000000
00000000
01000000
00000000
,
00100000
00000000
00001000
00010000
00000100
00010000
00000010
00000100
,
00000010
00010000
00001000
01000000
00001000
00100000
01000000
00100000
,
00001000
00000000
00010000
00000000
00001000
00000000
00000000
00000000
01001000
00000000
01000000
00000000
01000000
00000000
00010000
10000000
,
00010000
00100000
00000000
01000000
10000000
00000000
01000000
00000000
00010000
00000000
00001000
00000000
00010000
00000000
00000000
00000000
,
00011000
00000000
00020000
00032000
00023000
00032000
00023000
00030000
,
00000000
00001000
01000000
00010000
00200000
00000000
00320000
00000000
00230000
00000000
00320000
00000000
00230000
00000000
00300000
00000000
,
00000000
00000000
00010000
20000000
01000000
00000000
00000000
31000000
00000000
00100000
00000000
00001000
00000000
00010000
00000000
00000010
,
00000000
00000000
00000100
00000010
00000100
00000000
00000010
00000100
00000001
00000000
00000100
00000000
00000010
00000000
00000100
00000000
,
00000010
00001000
00000001
00000100
00000010
00000000
00002000
00000000
00000000
00003200
00000000
00000000
00020300
00000000
00000000
00032000
,
00000000
00000000
01003000
00000000
01000000
00000000
00200000
00000000
00000000
20300000
00000000
00000000
32000000
00000000
00000000
23000000
,
00000000
00000000
30100000
00000000
00100000
00000000
01000000
00100000
01000000
00000000
00000000
00010000
01000000
00000000
00001000
00010000
,
00001000
00010000
00000000
00000100
00001000
00000000
00000000
00000001
00000010
00000000
00000100
00000000
00000010
00000000
00000100
00001000
,
00000001
00000010
00000100
00001000
00000200
00000000
00000000
00000000
00000010
00000000
00000000
00000000
00000001
00000000
00000000
00000000
,
00000010
00001000
00010000
00001000
,
00000310
00000000
00000000
00000000
00001100
00000000
00000000
00000100
00010000
00000000
00001000
00000000
00000000
00010000
00001000
00100000
,
00010000
00100000
00000000
00000000
01100000
00000000
00000000
01000000
10000000
00000000
00010000
00000000
00000000
01000000
00100000
10000000
,
01000000
20020000
00000000
30030000
;
