#TITLE:LITTLE BOY (BOY ON BOY MIX);
#SUBTITLE:;
#ARTIST:CAPTAIN JACK;
#TITLETRANSLIT:;
#SUBTITLETRANSLIT:;
#ARTISTTRANSLIT:;
#GENRE:;
#CREDIT:;
#MUSIC:LITTLE BOY (BOY ON BOY MIX).mp3;
#BANNER:LITTLE BOY (BOY ON BOY MIX).png;
#BACKGROUND:LITTLE BOY (BOY ON BOY MIX)-bg.png;
#CDTITLE:;
#SAMPLESTART:0.000;
#SAMPLELENGTH:0.000;
#SELECTABLE:YES;
#OFFSET:-1.172;
#BPMS:0.000=149.907;
#STOPS:;
#DISPLAYBPM:150.000;
#BGCHANGES:;
#FGCHANGES:;

//--------------- dance-single - HellKiteChaos ----------------
#NOTES:
     dance-single:
     HellKiteChaos:
     Hard:
     13:
     0,0,0,0,0:
0000
0000
0000
0000
,
0000
0000
0000
0000
,
0000
0000
0000
0000
,
0000
0000
0000
0000
,
0000
0000
0000
0000
,
2000
0000
3010
0020
0000
0130
0001
1000
,
0020
0000
1030
0002
0000
1003
0100
0010
,
0200
0000
1300
0002
0000
1003
0010
0100
,
0201
0310
1200
0310
,
0001
0000
1000
0000
0000
0000
0010
0000
0100
0001
0000
0100
0001
0000
1000
0000
,
0001
0000
0010
0000
0000
0000
0100
0000
1000
0100
0000
1000
0100
0000
0010
0000
,
0001
0000
0100
0000
0000
0000
0010
0000
0100
0010
0000
0100
0010
0000
1000
0000
,
0001
0000
0010
0000
0000
0000
0100
0000
1000
0001
0000
1000
0001
0000
0100
0000
,
0010
0000
1000
0000
0010
0000
1000
0000
0001
0100
0000
0010
1000
0000
0001
0000
,
1000
0000
0100
0000
1000
0000
0100
0000
0010
0001
0000
1000
0100
0000
0010
0000
,
0001
0000
1000
0000
0010
0000
1000
0000
0010
1000
0000
0001
0100
0000
0001
0000
,
1000
1000
0001
0001
0100
0010
1001
0000
,
1000
0000
0100
0000
0010
0000
0001
0000
0100
0000
0001
0000
0100
0000
0001
1000
,
0001
1000
0100
0010
0001
1000
0002
0000
,
1003
0000
0010
0000
0100
0000
0001
0000
0010
0000
0001
0000
0010
0000
0001
1000
,
0001
1000
0010
0100
0001
1000
1001
0000
,
0001
0000
0100
0000
1000
0000
0100
0000
0001
0000
1000
0000
0100
0000
0010
0100
,
0010
0100
1000
0001
0100
0010
1000
0000
,
1000
0000
0010
0000
0001
0000
0010
0000
1000
0000
0001
0000
0010
0000
0100
0010
,
0100
0010
0001
1000
0010
0100
0001
1000
,
0001
0100
0010
0100
0101
0101
0101
0000
,
0001
0000
0100
0000
0010
0000
1000
0000
0001
1000
0001
1000
0001
0000
0000
0000
,
1000
0100
0010
0100
1000
0001
1001
0000
,
0001
0100
0010
1000
1001
1001
1001
0000
,
0001
0100
0010
0100
0001
0100
0100
0100
,
0010
1000
0010
0100
0010
1000
1000
1000
,
0001
0010
0100
0010
0001
0010
0010
0010
,
0100
0000
1000
0000
0100
0000
0010
0000
0001
1000
0001
1000
0001
0000
0000
0000
,
1000
0100
1000
0020
0000
0130
0100
0100
,
0001
0010
0001
0200
0000
0310
0010
0010
,
1000
0100
1000
0020
0000
0130
0001
1000
,
1100
0101
1100
0101
,
0001
0010
0001
0200
0000
0310
0010
0010
,
1000
0100
1000
0020
0000
0130
0100
0100
,
0001
0100
0010
2000
0000
3001
0001
0001
,
1000
1001
0110
1001
,
2000
0000
0010
0000
3000
0000
0010
1000
0010
0000
1000
0000
0001
0000
1000
0000
,
0100
0000
0010
0000
0000
0000
0001
0010
0001
0000
1000
0000
0100
0000
1000
0000
,
0002
0000
0100
0000
0003
0000
0001
0100
0001
0000
0100
0000
0010
0000
1000
0000
,
0100
0000
0010
0000
0000
0000
0100
0010
0100
0000
1000
0000
1001
0000
0000
0000
,
0002
0000
0100
0000
0003
0000
0100
0001
0100
0000
0001
0000
1000
0000
0001
0000
,
0010
0000
0100
0000
0000
0000
1000
0100
1000
0000
0001
0000
0010
0000
0001
0000
,
2000
0000
0010
0000
3000
0000
1000
0010
1000
0000
0010
0000
0100
0000
0001
0000
,
0010
0100
1000
0010
0100
0001
1001
0000
,
0002
1000
0000
1000
0000
1003
0100
0020
,
0000
0032
0000
2003
0000
3020
0000
0130
,
0002
1000
0000
1000
0000
1003
0010
0200
,
0000
2300
0000
3200
0000
0302
0000
0003
,
2000
0001
0000
0000
0000
0010
0010
0010
,
0000
0100
0000
0010
0000
0010
0000
3002
,
0000
0000
0000
0000
0000
0100
0100
0100
,
0000
0010
0000
0100
0000
0013
0000
0000
;

//--------------- dance-single - HellKiteChaos ----------------
#NOTES:
     dance-single:
     HellKiteChaos:
     Challenge:
     15:
     0,0,0,0,0:
0000
0000
0000
0000
,
0000
0000
0000
0000
,
0000
0000
0000
0000
,
0000
0000
0000
0000
,
0000
0000
0000
0000
,
2000
0000
0001
3002
0000
0103
0010
1000
,
0002
0000
1003
2000
0000
3100
0010
0001
,
2000
0000
3001
0002
0000
0103
1000
0100
,
0001
0011
0100
1100
,
1000
0000
1001
0000
0001
0000
0000
0000
0100
0010
0000
1000
0001
0000
1000
0000
,
0001
0000
1001
0000
0100
0000
0000
0000
0010
0001
0000
1000
0100
0000
0100
0000
,
0010
0000
0011
0000
0001
0000
0000
0000
1000
0010
0000
0100
0001
0000
1000
0000
,
0001
0000
1001
0000
1000
0000
0000
0000
0100
1000
0000
0001
0100
0000
0100
0000
,
0010
0000
1000
0000
0010
0000
0100
0000
0001
1000
0000
0001
1000
0000
0001
0000
,
0010
0000
0100
0000
0010
0000
0001
0000
1000
0001
0000
1000
0001
0000
0100
0000
,
0010
0000
1000
0000
0010
0000
0100
0000
0001
1000
0000
0001
1000
0000
0001
0000
,
0010
0010
0100
0100
1000
0001
1001
0000
,
1000
0100
1000
0000
0100
0010
0100
0000
0010
0001
0010
0001
0010
0001
0010
0000
,
0001
1000
0001
0000
0100
0001
0100
0000
0010
1000
0010
1000
0010
1000
0010
0000
,
0100
0001
0100
0000
0010
1000
0010
0000
1000
0100
1000
0100
1000
0100
1000
0000
,
0001
0100
0001
0000
1000
0100
1000
0000
0001
0010
0001
0010
0001
0010
0001
0000
,
1000
0100
0010
0000
0001
0010
0100
0000
1000
0100
0010
0001
0010
0100
1000
0000
,
0001
0100
0010
0000
1000
0010
0100
0000
0001
0100
0010
1000
0010
0100
0001
0000
,
1000
0001
0010
0000
0001
1000
0100
0000
0010
0001
1000
0100
0010
0001
1000
0000
,
0001
1000
0010
0000
1000
0001
0100
0000
0010
1000
0001
0100
0010
1000
0100
0010
,
0001
0010
0001
0010
0011
0011
1100
0000
,
1000
0000
0010
0000
1000
0000
0100
0000
1000
0010
1000
0100
2000
0000
0000
0000
,
3001
0000
0100
0000
0010
0000
0100
0000
0001
0010
0001
0000
0002
0000
0000
0000
,
1003
0100
1100
1001
0001
0100
0101
0000
,
0100
0010
0110
0010
1000
1001
1001
0101
,
0100
0010
1010
1000
1001
1001
0011
0110
,
0100
1000
0100
1000
0001
0010
0012
0000
,
1003
0000
0010
0000
0100
0000
0001
0000
1000
0001
1000
0000
1001
0000
0000
0000
,
0001
0000
0100
0010
1000
0000
0001
0000
1000
0100
0000
1000
0100
0000
0010
0000
,
0001
0000
1000
0010
0100
0000
0001
0000
0010
0001
0000
0010
0001
0000
1000
0000
,
0010
0000
0100
0001
1000
0000
0100
0000
0010
0100
0000
0010
0100
0000
1000
0000
,
1001
0001
0101
0000
0110
0010
1010
0000
,
1000
0000
0010
0100
0001
0000
1000
0000
0001
0010
0000
0001
0010
0000
0100
0000
,
1000
0000
0001
0100
0010
0000
1000
0000
0100
1000
0000
0100
1000
0000
0001
0000
,
0100
0000
0010
1000
0001
0000
0010
0000
0100
0010
0000
0100
0010
0000
0001
0000
,
1001
1000
1010
0000
0110
0100
0101
0001
,
2000
0000
0100
0000
0000
0000
3100
0000
1000
0100
0010
0001
0010
0100
1000
0000
,
0002
0000
0100
0000
0000
0000
0103
0000
0001
0100
0010
1000
0010
0100
0001
0000
,
2000
0000
0010
0000
0000
0000
3010
0000
1000
0010
0100
0001
0100
0010
1000
0000
,
0002
0000
0010
0000
0000
0000
0013
0000
0001
0010
0100
1000
0100
0010
0001
0000
,
2000
0000
0100
0000
0000
0000
3001
0000
0100
0010
1000
0001
0100
0010
1000
0000
,
0002
0000
0100
0000
0000
0000
1003
0000
0100
0010
0001
1000
0100
0010
0001
0000
,
2000
0000
0010
0000
0000
0000
3100
0000
0010
0001
0100
0010
1000
0100
0010
0000
,
0001
0010
0001
0000
1000
0010
1000
0000
0010
0100
0010
0100
0001
0000
1000
0000
,
0001
0200
0000
1000
0000
0010
0000
0301
,
1000
0200
0000
0001
0000
0010
0000
1300
,
0010
0020
0000
0001
0000
0100
0000
1030
,
0100
0010
0001
0100
0010
1000
0001
0000
,
0100
0020
0000
0000
0000
1030
1000
2000
,
0000
3002
0000
0203
0000
0302
0000
0023
,
0000
0030
0000
0000
0000
0100
0100
0200
,
0000
2300
0000
3002
0000
2000
0000
0000
,
3003
0000
0000
0000
;

//--------------- dance-double - HellKiteChaos ----------------
#NOTES:
     dance-double:
     HellKiteChaos:
     Challenge:
     13:
     0,0,0,0,0:
00000000
00000000
00000000
00000000
,
00000000
00000000
00000000
00000000
,
00000000
00000000
00000000
00000000
,
00000000
00000000
00000000
00000000
,
00000000
00000000
00000000
00000000
,
00002000
00000000
00100000
00103000
00000000
00001000
00100000
00001000
,
00020000
00000000
00000010
00030010
00000000
00010000
00000010
00010000
,
00002000
00000000
01000000
01003000
00000000
01000000
00001000
00010000
,
00011000
00010100
00011000
00101000
,
00100000
01000000
00000000
00100000
01000000
10000000
00100000
01000000
,
00001000
01000000
00000000
00010000
01000000
00001000
00010000
00000100
,
00010000
00001000
00000000
00010000
00100000
00010000
00001000
00010000
,
00000010
00000100
00000000
00000001
00000100
00000010
00001000
00000100
,
00001000
00000001
00001000
00000001
00010000
00000010
00010000
00000010
,
00010000
00001000
00010000
00001000
01000000
00010000
01000000
00010000
,
10000000
01000000
00010000
01000000
10000000
00100000
01000000
00100000
,
10000000
01000000
00100000
00010000
01000000
00001000
00010000
00000000
,
00001000
00000000
00010000
00000000
00000100
00000000
00001000
00000001
00001000
00000000
00000001
00000000
00000100
00000000
00000010
00000000
,
00000010
00000000
00000100
00000000
00000001
00000000
00001000
00000100
00001000
00000000
00000010
00000000
00000100
00000000
00000000
00000000
,
00000010
00000000
00010000
00000000
00000010
00000000
00001000
00000001
00001000
00000000
00000010
00000000
00010000
00000000
00001000
00000000
,
01000000
00000000
00010000
01000000
00010000
00000000
10000000
00000000
00100000
00000000
10000000
00000000
00010000
00000000
00000000
00000000
,
10000000
00000000
00010000
00000000
00100000
00000000
01000000
10000000
01000000
00000000
00100000
00000000
00001000
00000000
00100000
00000000
,
00010000
00000000
01000000
00000000
00001000
00000000
00010000
00001000
00010000
00000000
00000100
00000000
00000010
00000000
00000000
00000000
,
00000001
00000000
00000010
00000000
00001000
00000000
00000010
00000100
00000010
00000000
00000001
00000000
00001000
00000000
00000100
00000000
,
00010000
00001000
00010000
00001000
01000000
00100000
10000000
01000000
,
11000000
10000000
01000000
10000000
00100000
01000000
00010000
00000000
,
01000000
00001000
01000000
00010000
00100000
01000000
00100000
00000000
,
01000000
10000000
01000000
00010000
01000000
00100000
00001000
00000000
,
00010000
00000100
00001000
00000010
00000100
00000001
00001001
00000000
,
00000001
00000010
00000100
00000010
00000001
00000011
00000011
00001100
,
00000100
00010000
00001000
00010000
00000100
00010100
00010100
00011000
,
00001000
00100000
01000000
00100000
00010000
00110000
00110000
00100000
,
01000000
00000000
10000000
00000000
00100000
00000000
01000000
00000000
00010000
10000000
00010000
10000000
00010000
00000000
00000000
00000000
,
01000000
00100000
10000000
00100000
01000000
00010000
10000000
01000000
,
00100000
00001000
00100000
01000000
00100000
00001000
00010000
00001000
,
00010000
00000100
00010000
00000010
00001000
00000010
00010000
00000100
,
00001100
00000011
00000101
00010010
,
00010000
00000010
00010000
00001000
01000000
00001000
01000000
00001000
,
00100000
00010000
01000000
00100000
10000000
00010000
10000000
00010000
,
01000000
10000000
00010000
00100000
01000000
00001000
01000000
00001000
,
00010000
00000100
00000010
00000100
00010000
00000000
00011000
00000000
,
00001000
00000000
01000000
00010000
01000000
00000000
00000000
00000000
00100000
00000000
01000000
00000000
00100000
00000000
10000000
00000000
,
00010000
00000000
00100000
01000000
00100000
00000000
00000000
00000000
01000000
00000000
10000000
00000000
01000000
00000000
00100000
00000000
,
00001000
00000000
00010000
00001000
00010000
00000000
00000000
00000000
00001000
00000000
00010000
00000000
00000100
00000000
00000010
00000000
,
00000100
00000000
00001000
00000001
00001000
00000000
00000001
00000100
00000001
00000000
00000100
00000000
00001010
00000000
00000000
00000000
,
00000010
00000000
00010000
00001000
00010000
00000000
00001000
00000000
00100000
00000000
01000000
00000000
00100000
00000000
00001000
00000000
,
00010000
00000000
00000100
00001000
00000100
00000000
00000010
00000000
00000001
00000000
00000100
00000000
00000110
00000000
00000010
00000000
,
00010000
00000010
00010000
00000010
00001000
00000100
00001000
00000100
,
00010000
00001000
01000000
00100000
10000000
01000000
10010000
00000000
,
20100000
00000000
30020000
00000000
02030000
00000000
03010000
00100000
,
02000000
00000000
23000000
00000000
32000000
00000000
03010000
00001000
,
00000020
00000000
00000032
00000000
00000023
00000000
00000130
00001000
,
00000002
00000203
00002300
00023000
,
00230000
00000000
00000000
00000000
00000000
10000000
10000000
20300000
,
00000000
00010000
00000000
01000000
00000000
00010000
00000000
30200000
,
00000000
00000000
00000000
00000000
00000000
01000000
01000000
01000000
,
00000000
00001000
00000000
01000000
00000000
10300000
00000000
00000000
;
