#TITLE:LA COPA DE LA VIDA;
#SUBTITLE:;
#ARTIST:PATRICK VICTORIO;
#TITLETRANSLIT:;
#SUBTITLETRANSLIT:;
#ARTISTTRANSLIT:;
#GENRE:;
#CREDIT:;
#MUSIC:LA COPA DE LA VIDA.mp3;
#BANNER:LA COPA DE LA VIDA.png;
#BACKGROUND:LA COPA DE LA VIDA-bg.png;
#CDTITLE:;
#SAMPLESTART:0.000;
#SAMPLELENGTH:0.000;
#SELECTABLE:YES;
#OFFSET:-0.315;
#BPMS:0.000=134.000;
#STOPS:;
#DISPLAYBPM:134.000;
#BGCHANGES:;
#FGCHANGES:;

//--------------- dance-single - HellKiteChaos ----------------
#NOTES:
     dance-single:
     HellKiteChaos:
     Challenge:
     13:
     0,0,0,0,0:
0000
0000
0000
0000
,
0000
0000
0000
0000
0000
0000
0000
0001
,
0010
0001
0100
0001
0020
0000
0030
0100
,
1000
0010
1000
0100
2000
0000
3000
0000
,
1001
0000
0000
0001
0100
0000
0000
0000
1001
0000
0000
1000
0100
0000
0000
0000
,
1001
0000
0000
0001
0010
0000
0000
0000
1001
0000
0000
1000
0010
0000
0000
0000
,
1001
0000
0000
0001
0101
0000
0000
1000
,
0001
1000
0000
0001
1000
0000
0100
0000
0010
0000
0000
0000
0110
0000
0000
0000
,
0001
0000
0010
0001
0010
0000
0100
0000
0010
0000
0100
1000
0100
0000
1000
0000
,
0001
0000
0100
0001
0100
0000
0010
0000
1000
0000
0001
0000
0101
0000
0000
0000
,
0100
0000
0010
1000
0010
0000
0100
0000
0001
0000
1000
0100
1000
0000
0001
0000
,
0010
0000
0100
0010
0100
0000
1000
0100
1000
0000
0001
1000
0001
0000
0000
0000
,
1000
0100
0010
0001
0100
0001
0000
0011
,
0000
0000
0010
0000
0100
0000
1000
0000
0001
0000
1000
0001
0100
0000
0010
1000
,
0001
0100
0010
1000
0010
0100
0000
0110
,
0000
0000
0100
0000
0001
0000
1000
0000
0100
0000
0010
0000
0001
1000
0001
1000
,
0001
0100
0010
1000
0100
1000
0000
1100
,
0000
0000
0100
0000
0010
0000
0001
0000
1000
0000
0010
0100
0001
0000
1000
0010
,
0100
0001
1000
0100
0010
0001
0000
1000
,
0000
0100
0010
0001
1000
0001
1000
0010
,
0100
0000
0001
0100
0000
0001
0010
0000
0000
0000
0100
0000
1000
0000
0010
0000
,
1000
0000
0010
1000
0000
0100
1000
0000
0000
0000
0001
0000
0101
0000
0000
0000
,
1000
0010
0100
0010
1000
0000
0001
0010
,
0100
0010
0001
1000
0001
0100
0010
0100
,
0001
0000
1000
0100
0000
1000
0010
0000
0000
0000
0100
0000
0001
0000
0010
0000
,
0001
0000
1000
0010
0000
0100
0001
0000
0000
0000
1000
0000
1100
0000
0000
0000
,
0010
0001
0010
0100
1000
0001
1000
0001
,
1000
0010
0100
0000
0001
0010
0100
0100
,
1000
0010
0000
0100
0001
0010
0000
0010
,
0001
1000
0000
0001
1000
0000
0010
0000
0110
0000
0100
0000
1001
0000
0000
0000
,
1000
0000
0100
1000
0100
0000
1000
0100
1000
0000
0010
0000
0001
0000
2000
0000
,
3200
0302
0203
2300
3010
0000
0100
0000
,
0101
0000
0100
0001
0100
0000
0001
0100
0001
0000
0100
0000
0100
0000
0002
0000
,
0203
2300
3200
0302
0013
0000
0100
0000
,
2100
0000
3002
0000
0203
0000
0300
0010
,
0100
0001
0010
0100
2001
0000
3000
0000
,
2100
0000
3020
0000
0230
0000
0300
0002
,
0023
0032
0203
2300
3200
0000
0300
0000
,
0001
0000
0010
0001
0010
0000
0100
0010
0100
0000
1000
0000
0001
0000
0200
0000
,
2300
3200
0302
0023
2030
0000
3000
0000
,
1100
0000
0100
1000
0100
0000
0010
0100
0010
0000
0001
0000
1000
0000
0020
0000
,
2030
3200
2300
3002
0023
0000
0030
0010
,
0200
0000
2300
0000
3002
1000
1003
0100
,
0010
0001
0100
0010
1000
0001
1001
0000
,
1010
1000
1100
0000
1100
0001
0001
0200
,
0302
0023
0032
0203
0320
0000
0130
0010
,
2002
0000
3003
0000
;

//--------------- dance-double - HellKiteChaos ----------------
#NOTES:
     dance-double:
     HellKiteChaos:
     Challenge:
     12:
     0,0,0,0,0:
00000000
00000000
00000000
00000000
,
00000000
00000000
00000000
00000000
00000000
00000000
00000000
00001000
,
00010000
00100000
00010000
00001000
00000010
00000000
00000000
00001000
,
00010000
01000000
00010000
00001000
00000100
00000000
00000001
00000000
,
00001001
00000000
00000000
00001000
00000010
00000000
00000000
00000000
00001001
00000000
00000000
00000001
00000010
00000000
00000000
00000000
,
00001001
00000000
00000000
00001000
00000100
00000000
00000000
00000000
00001001
00000000
00000000
00000001
00000100
00000000
00000000
00000000
,
00001001
00000000
00000000
00010000
00011000
00000000
00000000
10000000
,
00010000
10000000
00000000
00010000
10000000
00000000
01000000
00000000
00100000
00000000
00000000
00000000
01100000
00000000
00000000
00000000
,
00100000
00001000
01000000
00100000
10000000
01000000
00100000
00010000
,
01000000
00000000
01000000
00000000
00001000
00000000
00001000
00000000
00000100
00000000
00000100
00000000
00000010
00000000
00001000
00000001
,
00001000
00000100
00000010
00000001
00010000
00000010
00000100
00000001
,
00000010
00000000
00000010
00000000
00001000
00000000
00001000
00000000
00100000
00000000
00100000
00000000
00010000
10000000
00010000
10000000
,
01000000
02000000
00000000
00010000
00000000
10000000
00000000
00001000
,
00000000
10000000
00000000
03010000
01000000
10000000
00100000
00001000
,
00000010
00000200
00000000
00000001
00000000
00010000
00000000
00000001
,
00000000
00001000
00000000
00000301
00000100
00001000
00010000
00100000
,
10000000
01000000
00100000
00010000
01000000
00200000
00000000
10000000
,
00000000
00001000
00000000
10000000
00000000
00010000
00000000
10300000
,
00010000
00100000
01000000
00010000
00000100
00000010
00000001
00001000
,
00000100
00000010
00000001
00000100
00000010
00001000
00001001
00000000
,
00002000
00000000
01000000
00000000
00003100
00010000
00001000
00010000
,
00002000
00000000
00000100
00000000
01003000
00010000
00100000
01000000
,
10000000
00100000
00010000
00100000
10000000
01000000
00010000
00000000
,
00001000
00000010
00000001
00000100
00000010
00001000
00000100
00001000
,
00000020
00000000
00000100
00000000
00100030
00001000
00010000
00001000
,
00200000
00000000
01000000
00000000
00300010
00001000
00000100
00010000
,
00001000
00100000
01000000
00010000
00001000
00000010
00001000
00100000
,
01000000
10000000
00010000
00000000
01000000
00100000
10000000
00000000
,
01000000
00100000
00000000
00100000
01000000
00100000
00000000
00100000
,
00010000
10000000
00000000
00010000
10000000
00000000
01000000
00000000
01100000
00000000
00000000
00000000
00011000
00000000
00000000
00000000
,
00021000
00000000
01000000
00000000
00001000
00000000
00030010
00000100
,
00000010
00000100
00000001
00000010
00000100
00010000
00001000
00010000
,
00012000
00000000
00000100
00000000
00010000
00000000
00103000
01000000
,
00100000
01000000
10000000
00100000
01000000
00010000
10010000
00000000
,
10000000
00100000
00010000
00001000
00000100
00000010
00001000
00000000
,
00000001
00000010
00001000
00010000
01000000
00100000
00010000
00000000
,
10000000
00100000
00010000
00001000
00100000
01000000
00010000
00001000
,
00000010
00000000
00000100
00000000
00010000
00000000
00000010
00000000
00000100
00000000
00001000
00000000
00010000
00001000
00010000
00000000
,
00012000
00000000
01000000
00000000
00103000
00000000
00010000
00000100
,
00010000
00000010
00010000
00000100
00010000
00000010
00000100
00001000
,
00021000
00000000
00000100
00000000
00030010
00010000
00001000
00100000
,
00001000
00010000
00000010
00010000
00001000
00100000
01000000
10000000
,
00010000
00010000
01000000
00100000
10000000
10000000
01000000
00010000
,
00001000
00000010
00000001
00001000
00000001
00000100
00000110
00000000
,
00011000
00000000
01100000
00000000
10010000
00000000
01100000
10000000
,
00010000
00100000
00001000
00000100
00000010
00000100
00000001
00001000
,
00000220
00000000
00000330
00000000
;
