#TITLE:I'M IN THE MOOD FOR DANCING;
#SUBTITLE:;
#ARTIST:SHARON;
#TITLETRANSLIT:;
#SUBTITLETRANSLIT:;
#ARTISTTRANSLIT:;
#GENRE:;
#CREDIT:;
#MUSIC:I'M IN THE MOOD FOR DANCING.mp3;
#BANNER:I'M IN THE MOOD FOR DANCING.png;
#BACKGROUND:I'M IN THE MOOD FOR DANCING-bg.png;
#CDTITLE:;
#SAMPLESTART:25.632;
#SAMPLELENGTH:9.200;
#SELECTABLE:YES;
#OFFSET:-0.032;
#BPMS:0.000=150.000;
#STOPS:;
#DISPLAYBPM:150.000;
#BGCHANGES:;
#FGCHANGES:;

//--------------- dance-single - HellKiteChaos ----------------
#NOTES:
     dance-single:
     HellKiteChaos:
     Challenge:
     14:
     0,0,0,0,0:
0000
0000
0000
0000
,
0000
0000
0000
0000
,
0000
0000
0000
0000
,
0000
0000
0000
0000
,
1000
0001
0100
0001
1000
0001
0100
0001
,
1000
0010
1000
0001
1000
0010
1000
0001
,
1000
0100
0010
0001
0100
0010
1000
0100
,
0010
0000
0100
0000
0010
0001
0000
1000
0100
0000
0010
0000
0001
1000
0001
1000
,
0010
0000
0100
0000
0001
0000
0100
0010
0000
1000
0100
0000
0010
0000
0100
0000
,
0010
0000
0001
0000
1000
0001
0000
1000
0002
0000
0000
0000
0100
0000
0103
0000
,
0100
0000
0010
0000
1000
0100
0000
0010
0002
0000
1000
0000
0003
0000
1000
0000
,
0001
0010
0100
0010
0001
1000
0100
0010
0100
0010
0100
1000
0001
0010
0100
1000
,
0001
0000
1000
0000
0010
0000
0100
0001
0000
1000
0010
0000
0100
0000
0010
0000
,
1000
0000
0001
0000
0100
0010
0000
0100
0010
0000
1000
0000
1001
0000
0000
0000
,
0000
0000
0001
0000
1000
0010
0000
0100
0001
0000
2000
0000
0000
0000
3001
0000
,
1000
0010
1000
0010
0100
0010
0100
0001
2000
0000
0000
0000
3200
0000
0000
0000
,
0310
0001
1000
0001
0010
0001
1000
0100
,
0010
0001
1000
0010
0100
0001
1000
0010
,
0100
0001
1000
0001
0100
0010
1000
0001
,
1000
0000
0100
0000
0001
0000
0200
0000
0000
0000
1300
0000
0001
1000
0001
0000
,
0100
0001
1000
0001
0100
0001
1000
0010
,
0100
0001
1000
0100
0010
0001
1000
0100
,
0010
0001
1000
0001
0010
0100
1000
0001
,
1000
0000
0010
0000
0001
0000
0020
0000
0000
0000
1030
0000
0001
1000
0001
1000
,
0200
0010
0320
0000
0032
1000
2003
0000
,
3010
0000
0100
0000
0001
0000
1000
0100
0010
0000
0100
0000
0010
0000
0010
0000
,
0010
0001
0100
0001
0010
1000
0010
0001
,
0100
0010
0100
0001
0100
0010
0100
0000
0010
1000
0010
0100
0010
1000
0010
1000
,
0002
0100
0203
0000
0320
1000
2030
0000
,
3001
0010
0100
0010
0001
1000
0100
0100
,
0100
1000
0010
0001
0010
1000
0100
1000
,
0010
0100
0001
0100
0010
1000
0010
1000
0100
1000
0100
0010
0001
0010
0001
1000
,
0010
0000
0100
0000
0001
0000
1000
0001
1000
0000
0001
0000
0010
0000
0100
0010
,
0100
0000
1000
0000
0001
0000
0100
0001
0100
0000
0010
0000
1000
0000
0001
0010
,
0001
0000
1000
0000
0100
0000
0010
0100
0010
0000
0001
0000
1000
0000
0010
0000
,
0100
0000
0001
0000
0010
0000
1100
0000
0000
0000
0101
0000
1000
0010
1000
0000
,
0001
0000
0100
0000
0010
0000
1000
0001
0000
0000
1000
0000
0100
0010
0100
0010
,
0001
0000
1000
0000
0001
0000
0100
0010
0000
0000
1000
0000
0001
0100
0001
0100
,
0010
0000
1000
0000
0001
0000
0100
0010
0100
0000
0001
0000
1000
0100
1000
0100
,
0010
0000
0001
0000
0100
0010
0000
0100
0010
0000
2000
0000
0000
0000
3001
0000
,
0010
0000
0100
0000
1000
0001
0000
1000
0001
0000
0200
0000
0000
0000
0310
0000
,
1000
0000
0100
0000
0010
0001
0000
1000
0100
0000
0010
0000
1001
0000
0000
0000
,
1001
0000
0100
0000
1001
0000
1000
0001
0000
0001
1000
0000
0001
0000
1000
0000
,
0100
0000
1000
0000
0010
0100
0000
0010
0100
0000
0002
0000
0000
0000
1003
0000
,
0100
0000
0010
0000
0001
1000
0000
0001
1000
0000
0020
0000
0000
0000
0130
0000
,
0001
0000
0010
0000
0100
1000
0000
0001
0010
0000
0100
0000
1001
0000
0000
0000
,
1001
0000
0010
0000
0110
0000
0100
0010
0000
0010
0100
0000
0010
0000
0100
0000
,
1001
0000
0001
0000
1000
0010
0000
1000
0010
1000
0020
0000
0000
0000
0130
0000
,
0001
0000
1000
0000
0001
0010
0000
0001
0010
0001
0020
0000
0000
0000
0130
0000
,
1000
0000
0001
0000
0100
0010
0000
1000
0001
0000
0100
0000
0010
0000
1000
0000
,
0001
0000
0100
0000
0010
0000
1000
0001
0000
1000
0001
1000
0001
1000
0100
0010
,
0001
0000
1000
0000
0001
0100
0000
0001
0100
0001
0200
0000
0000
0000
0310
0000
,
1000
0000
0001
0000
1000
0100
0000
1000
0100
1000
0200
0000
0000
0000
0310
0000
,
0001
0000
1000
0000
0010
0100
0000
0001
1000
0000
0100
0000
0010
0000
0001
0000
,
1001
0000
0100
0000
1001
0000
0010
0100
0000
0100
0010
0000
1001
0000
0100
0000
,
2002
0000
3003
0000
;

//--------------- dance-double - HellKiteChaos ----------------
#NOTES:
     dance-double:
     HellKiteChaos:
     Challenge:
     14:
     0,0,0,0,0:
00000000
00000000
00000000
00000000
,
00000000
00000000
00000000
00000000
,
00000000
00000000
00000000
00000000
,
00000000
00000000
00000000
00000000
,
00001000
00100000
00001000
00100000
01000000
00100000
01000000
10000000
,
00100000
01000000
00100000
01000000
00001000
01000000
00001000
01000000
,
00010000
00100000
00010000
00100000
00001000
00010000
00001000
00010000
,
00000100
00000000
00000010
00000000
00000001
00001000
00000000
00000001
00001000
00000000
00000010
00000000
00000200
00000000
00000000
00000000
,
00000301
00000100
00000010
00000100
00000001
00000100
00000010
00000100
,
00000001
00000000
00000010
00000000
00000100
00001000
00000000
00000100
00020000
00000000
00000000
00000000
00031000
00000000
00000000
00000000
,
00010000
00000000
00001000
00000000
00100000
00010000
00000000
00100000
01000000
00000000
20000000
00000000
00000000
00000000
30010000
00000000
,
01000000
00100000
01000000
00100000
01000000
00000000
00010000
01000000
00010000
01000000
00010000
00000000
10000000
00100000
10000000
00010000
,
10000000
01000000
00100000
01000000
10000000
01000000
00100000
01000000
,
10000000
00000000
00010000
00000000
00100000
00001000
00000000
00010000
00002000
00000000
00000000
00000000
00003100
00000000
00000000
00000000
,
00000100
00000000
00000010
00000000
00000100
00000001
00000000
00001000
00000010
00000000
00002000
00000000
00000000
00000000
00003100
00000000
,
00001000
00000100
00001000
00000100
00010000
00000000
00001000
00010000
00001000
00010000
00001000
00100000
00020000
00000000
00000000
00000000
,
00130000
01000000
00100000
01000000
10000000
00010000
10000000
00010000
,
01000000
00100000
10000000
01000000
00010000
00001000
00000010
00000001
,
00001000
00000001
00001000
00000001
00000100
00000010
00000100
00000010
,
00001000
00000000
00000100
00000000
00000010
00000000
00000002
00000000
00000000
00000000
00001003
00000000
00000001
00001000
00000001
00000000
,
00000100
00001000
00000100
00000001
00000100
00000010
00000100
00000010
,
00001000
00000100
00010000
00000100
00000010
00000100
00010000
00001000
,
00100000
01000000
00100000
10000000
00100000
01000000
00100000
00010000
,
01000000
00000000
00100000
00000000
10000000
00000000
00200000
00000000
00000000
00000000
10300000
00000000
00010000
10000000
00010000
10000000
,
02000000
00100000
03200000
00000000
00320000
10000000
20030000
00000000
,
30100000
00000000
01000000
00000000
00010000
00000000
10000000
01000000
00100000
00000000
01000000
00000000
00100000
00000000
00100000
00000000
,
00100000
00001000
00100000
00001000
00010000
00000010
00001000
00000001
,
00001000
00000100
00001000
00000100
00000010
00000001
00001000
00000000
00000001
00000100
00000001
00000100
00000010
00001000
00000001
00000100
,
00000010
00000010
00000020
00000000
00000230
00000001
00000302
00000000
,
00001003
00000100
00000010
00000100
00001000
00000001
00000010
00000010
,
00000010
00000001
00000100
00001000
00000100
00000001
00000010
00000001
,
00000200
00002300
00023000
00230000
,
10300000
00000000
01000000
00000000
00100000
00000000
00010000
00000000
01000000
00000000
00100000
00000000
10000000
00000000
00010000
01000000
,
00010000
00000000
10000000
00000000
00010000
00000000
01000000
00000000
00001000
00000000
00010000
00000000
00000100
00000000
00000010
00000100
,
00000010
00000001
00001000
00000100
00000001
00000100
00001000
00000010
,
00010000
00000000
00001000
00000000
00100000
00000000
00110000
00000000
00000000
00000000
01010000
00000000
10000000
00100000
10000000
00000000
,
00010000
00000000
01000000
00000000
00100000
00000000
10000000
00020000
00000000
00000000
10030000
00000000
01000000
00100000
01000000
00100000
,
00010000
00000000
01000000
00000000
00001000
00000000
00010000
00002000
00000000
00000000
00003100
00000000
00000010
00000100
00000010
00000100
,
00000001
00000000
00001000
00000000
00000100
00000000
00000010
00000100
00000010
00000000
00000001
00000000
00001000
00000001
00001000
00000001
,
00001000
00000000
00000001
00000000
00000010
00000100
00000000
00000010
00000100
00000000
00002000
00000000
00000000
00000000
00003100
00000000
,
00010000
00000000
00001000
00000000
00010000
00001000
00000000
00100000
00010000
00000000
20000000
00000000
00000000
00000000
31000000
00000000
,
00100000
00000000
00010000
00000000
10000000
00100000
00000000
01000000
00010000
00000000
10000000
00000000
10010000
00000000
00000000
00000000
,
10010000
00000000
01000000
00000000
10010000
00000000
10000000
00010000
00000000
00010000
10000000
00000000
01000000
00000000
00010000
00000000
,
00001000
00000000
00000010
00000000
00000001
00000010
00000000
00000001
00000010
00000000
00000200
00000000
00000000
00000000
00001300
00000000
,
00000100
00000000
00010000
00000000
00001000
00100000
00000000
00001000
00100000
00000000
00020000
00000000
00000000
00000000
01030000
00000000
,
00100000
00000000
10000000
00000000
00010000
01000000
00000000
00100000
10000000
00000000
00010000
00000000
01010000
00000000
00000000
00000000
,
01001000
00000000
00001000
00000000
00011000
00000000
00010000
00001000
00000000
00001000
00010000
00000000
00000100
00000000
00001000
00000000
,
00000010
00000000
00000100
00000000
00000001
00001000
00000000
00000001
00001000
00000000
00000100
00000000
00000010
00000000
00000100
00000000
,
00010000
00000000
00001000
00000000
00100000
00010000
00000000
10000000
01000000
00000000
00010000
00000000
01000000
00000000
10000000
00000000
,
00010000
00000000
01000000
00000000
00100000
10000000
00000000
00010000
00100000
00000000
10000000
00000000
00100000
00000000
00010000
00000000
,
00001000
00000000
00000100
00000000
00000010
00000000
00000001
00001000
00000000
00001000
00000001
00000000
00000100
00000000
00000010
00000000
,
00001000
00000000
00000100
00000000
00010000
00001000
00010000
00001000
00010000
00000000
00002000
00000000
00000000
00000000
01003000
00000000
,
00100000
00000000
10000000
00000000
00010000
01000000
00010000
01000000
00010000
00000000
00200000
00000000
00000000
00000000
01300000
00000000
,
10000000
00000000
00010000
00000000
01000000
00001000
01000000
00001000
01000000
00000000
00020000
00000000
00000000
00000000
00130000
00000000
,
00001000
00000000
00010000
00000000
00000100
00000000
00000010
00000100
00000000
00000100
00000010
00000000
00000001
00000000
00001000
00000000
,
00002002
00000000
00003003
00000000
;
