#VERSION:0.83;
#TITLE:Healing Vision;
#SUBTITLE:(Angelic mix);
#ARTIST:2MB;
#TITLETRANSLIT:;
#SUBTITLETRANSLIT:;
#ARTISTTRANSLIT:;
#GENRE:Dance Dance Revolution 6th Mix -Max-,Dancing Stage Euromix 2;
#CREDIT:;
#MUSIC:Healing Vision (Angelic mix).mp3;
#BANNER:Healing Vision (Angelic mix).png;
#BACKGROUND:Healing Vision (Angelic mix)-bg.png;
#CDTITLE:;
#SAMPLESTART:35.500;
#SAMPLELENGTH:12.000;
#SELECTABLE:YES;
#OFFSET:-1.261;
#BPMS:0.000=49.000
,4.000=196.000
,291.000=49.000
;
#STOPS:226.000=0.306;
#SPEEDS:0.000=1.000=0.000=0;
#SCROLLS:0.000=1.000;
#TICKCOUNTS:0.000=4;
#TIMESIGNATURES:0.000=4=4;
#LABELS:0.000=Song Start;
#COMBOS:0.000=1;
#DISPLAYBPM:46.000:196.000;
#ORIGIN:;
#PREVIEWVID:;
#JACKET:;
#CDIMAGE:;
#DISCIMAGE:;
#BGCHANGES:;
#FGCHANGES:;

//--------------- dance-single - HellKiteChaos ----------------
#NOTEDATA:;
#STEPSTYPE:dance-single;
#DESCRIPTION:HellKiteChaos;
#DIFFICULTY:Challenge;
#METER:15;
#RADARVALUES:0,0,0,0,0;
#NOTES:
0000
0000
0000
0000
,
1000
0000
0001
0010
0100
0010
0100
1000
,
0001
0000
1000
0010
0100
0010
0100
0001
,
1000
0000
0100
0010
0100
0010
0001
1000
,
0001
0000
0100
0010
0100
0001
1000
0100
,
0010
0000
0100
0010
0001
1000
0001
1000
,
0010
0000
0100
0001
1000
0001
0010
0100
,
1000
0000
0001
1000
0010
1000
0010
0100
,
0001
0000
1000
0100
1000
0100
0010
0001
,
1001
0000
0000
0000
0001
0000
1000
0000
0001
0100
0001
0000
1000
0000
0010
0000
,
1000
0000
0000
0000
0001
0000
1000
0000
0100
1000
0100
0000
1000
0000
0001
0000
,
0010
0000
0000
0000
0100
0000
0010
0000
0100
1000
0100
0000
1000
0000
0001
0000
,
0100
0000
0000
0000
0010
0000
1000
0000
0010
0100
0010
0000
0100
0000
0001
0000
,
1000
0000
0000
0000
0001
0000
0100
0000
0001
0010
0001
0000
1000
0000
0100
0000
,
0010
0000
0000
0000
0100
0000
1000
0000
0001
0010
0001
0000
1000
0000
0010
0000
,
0100
0000
0000
0000
0001
0000
1000
0000
0001
0100
0001
0000
1000
0000
0010
0000
,
0100
0000
0000
0000
0001
0000
0010
0000
0100
0010
0100
0000
1000
0000
0001
0000
,
1001
0000
0001
0100
1000
0100
1000
0100
,
0001
0100
0010
1000
0001
0010
0001
0010
,
0100
0001
0100
0010
0001
0100
1000
0100
,
0010
1000
0010
1000
0001
0100
0001
1000
,
1200
0000
1000
0020
0300
0031
1000
0001
,
0201
0000
0001
0020
0300
0130
0010
1000
,
1002
0000
0010
2000
0003
3010
0100
0010
,
1000
0000
0001
0000
1000
0000
0001
0000
0100
0000
0010
0000
1000
0001
1000
0001
,
0100
0000
0110
0000
0010
1000
0001
1000
,
0100
0010
0100
1000
0001
0010
0100
1000
,
0001
0000
1000
0000
0001
0100
0010
0000
,
1000
0100
0001
0100
1000
0010
0001
0010
,
1000
0000
1001
0000
0001
0100
0010
0100
,
0001
1000
0010
0100
0001
0010
0100
1000
,
0001
0000
0011
0000
0010
0100
0110
0000
,
0100
0100
1000
0001
0100
0010
0100
0001
,
0101
0000
1010
0000
0010
0100
0001
1000
,
0010
1000
0001
0100
0010
1000
0100
0010
,
0001
0000
1001
0000
1000
0001
0010
0000
,
0001
0100
1000
0100
0001
0010
1000
0010
,
0001
0000
1000
0000
0010
0100
0001
0000
,
0010
0100
0010
0001
1000
0100
0010
0100
,
1000
1001
0101
0110
,
0010
0010
1000
1000
0001
0100
0010
1000
,
1100
0000
0010
0001
1100
0000
1000
0010
,
0101
0000
0011
0001
0100
0010
0100
0001
,
0010
0000
1100
1000
0001
0000
0101
0001
,
1000
0000
1001
0000
0100
0010
0100
0010
,
1001
1000
0100
0000
1001
0001
0100
0000
,
0010
1000
0100
1000
0010
0100
0001
0010
,
0001
0001
1000
0000
1000
1000
0001
0100
,
0010
0000
0010
0000
1000
0001
1000
0001
,
0021
0000
0001
0200
0030
1300
0001
1000
,
1020
0000
1000
0200
0030
0310
0100
0001
,
2001
0000
0100
0002
3000
0103
0010
0100
,
1002
0000
0100
2000
0003
3001
1000
0100
,
0020
0000
0031
0200
0000
0310
0100
0001
,
2000
0000
3100
0020
0000
0031
0100
0001
,
0020
0000
0130
2000
0000
3001
0100
0010
,
1000
0000
0000
0000
0000
0000
0000
0000
0001
0000
0000
0000
0000
0000
0000
0000
0100
0000
0000
0000
0000
0000
0000
0000
0010
0000
0000
0000
0000
0000
0000
0000
2002
3003
0000
0000
0000
0000
0000
0000
0000
0000
0000
0000
0000
0000
0000
0000
0010
0000
0000
0000
0000
0000
0000
0000
1000
0000
0000
0000
0000
0000
0000
0000
,
0001
0000
0010
0000
0100
0010
0100
0000
0010
0000
0100
0000
1000
0000
0001
0000
,
0100
0000
0010
0000
1000
0001
1000
0000
0001
0000
1000
0000
0100
0000
0010
0000
,
0001
0000
1000
0000
0001
0100
0001
0000
0100
0000
0001
0000
1000
0000
0100
0000
,
0010
0000
0001
0000
1000
0001
1000
0000
0001
0000
1000
0000
0001
0000
0100
0000
,
0001
0000
0010
0000
0100
0010
0100
0000
1000
0000
0100
0000
1000
0000
0001
0000
,
0010
0000
0001
0000
0100
0001
0100
0000
0001
0000
0100
0000
0010
0000
0100
0000
,
0010
0000
1000
0000
0001
1000
0001
0000
0010
0000
0001
0000
0010
0000
0100
0000
,
0010
0000
0001
0000
1000
0001
1000
0000
0001
0000
1000
0000
1001
0000
0001
0000
,
0100
0000
0010
0000
0100
0001
1000
0000
0100
0000
0010
0000
0100
0000
1000
0000
,
0010
0000
1000
0000
0100
1000
0001
0000
0100
0000
0010
0000
0100
0000
0001
0000
,
0010
0000
0100
0000
0010
0001
1000
0000
0010
0000
0100
0000
0010
0000
1000
0000
,
0010
0000
0100
0000
0010
1000
0001
0000
0010
0000
0100
0000
0010
0000
0001
0000
,
1000
0100
1000
0000
0001
0000
0010
0000
0001
0100
0001
0000
0100
0000
0010
0000
,
1000
0010
1000
0000
0001
0000
0100
0000
0001
0010
0001
0000
1000
0000
0001
0000
,
0100
0010
0100
0000
0001
0000
1000
0000
0010
0100
0010
0000
1000
0000
0001
0000
,
0010
0100
0010
0000
0001
0000
1000
0000
0010
0000
0100
0000
0001
0001
0000
0000
,
0000
0000
1000
1000
0000
0001
0001
0000
0000
1000
1000
0000
0001
0001
0000
0000
;

//--------------- dance-double - HellKiteChaos ----------------
#NOTEDATA:;
#STEPSTYPE:dance-double;
#DESCRIPTION:HellKiteChaos;
#DIFFICULTY:Challenge;
#METER:15;
#RADARVALUES:0,0,0,0,0;
#NOTES:
00000000
00000000
00000000
00000000
,
00010000
00000000
00001000
00100000
00001000
00100000
01000000
10000000
,
00010000
00000000
10000000
00100000
10000000
00100000
01000000
00001000
,
00010000
00000000
00001000
00010000
00000100
00001000
00000010
00010000
,
00001000
00000000
00010000
01000000
00100000
00010000
01000000
00001000
,
00010000
00000000
00001000
00000100
00000010
00001000
00000100
00000010
,
00000100
00000000
00000010
00000001
00000100
00000010
00001000
00000100
,
00010000
00000000
00001000
00100000
01000000
00010000
01000000
10000000
,
00010000
00000000
01000000
00100000
10000000
01000000
00010000
00001000
,
00011000
00000000
00000000
00000000
00001000
00000000
00000100
00000000
00000010
00000100
00000010
00000000
00001000
00000000
00000100
00000000
,
00010000
00000000
00000000
00000000
00001000
00000000
00100000
00000000
01000000
00100000
01000000
00000000
00100000
00000000
00001000
00000000
,
00010000
00000000
00000000
00000000
00001000
00000000
01000000
00000000
00100000
10000000
00100000
00000000
10000000
00000000
01000000
00000000
,
00100000
00000000
00000000
00000000
00010000
00000000
10000000
00000000
00010000
01000000
00010000
00000000
01000000
00000000
00100000
00000000
,
00010000
00000000
00000000
00000000
00001000
00000000
00000100
00000000
00000010
00000100
00000010
00000000
00001000
00000000
00000010
00000000
,
00000100
00000000
00000000
00000000
00000001
00000000
00000100
00000000
00000010
00001000
00000010
00000000
00001000
00000000
00000100
00000000
,
00010000
00000000
00000000
00000000
00001000
00000000
00010000
00000000
00000100
00010000
00000100
00000000
00010000
00000000
01000000
00000000
,
00100000
00000000
00000000
00000000
10000000
00000000
00010000
00000000
01000000
00100000
01000000
00000000
00010000
00000000
01000000
00000000
,
01100000
00100000
10000000
00100000
01000000
00001000
01000000
00001000
,
00100000
01000000
00100000
00001000
00010000
00000100
00000010
00000001
,
00000100
00001000
00000100
00001000
00000100
00000001
00000010
00001000
,
00000010
00001000
00010000
01000000
10000000
00100000
01000000
00010000
,
10020000
00000000
10000000
00200000
00030000
01300000
10000000
00010000
,
01002000
00000000
00010000
00000200
00003000
00000310
00001000
00000001
,
00002001
00000000
00000010
00000002
00003000
00000013
00000100
00000010
,
00000001
00000000
00001000
00000000
00000001
00000000
00001000
00000000
00000010
00000000
00000100
00000000
00000001
00001000
00000001
00001000
,
00000100
00000000
00000110
00000000
00000010
00000001
00000100
00000010
,
00000100
00000010
00010000
00001000
01000000
00100000
10000000
01000000
,
00100000
00000000
00010000
00000000
01000000
00001000
00010000
00000000
,
00000100
00000010
00000001
00000010
00001000
00000010
00000001
00000100
,
00000010
00000000
00001010
00000000
00000010
00001000
00000100
00010000
,
00000100
00001000
00000010
00000001
00000010
00001000
00000100
00010000
,
00001000
00000000
00110000
00000000
00100000
01000000
01100000
00000000
,
01000000
01000000
10000000
00010000
01000000
01000000
01000000
01000000
,
01010000
00000000
01000000
00100000
10000000
00100000
00010000
00001000
,
00000100
00000010
00001000
00000010
00000001
00000010
00001000
00000100
,
00010000
00000000
00011000
00000000
00001000
00010000
01000000
00000000
,
10000000
01000000
10000000
01000000
00100000
00010000
01000000
00100000
,
10000000
00000000
01010000
00000000
01000000
00100000
00010000
10000000
,
01000000
00010000
00001000
00000010
00000100
00001000
00000001
00000010
,
00001000
00001001
00001100
00110000
,
11000000
10100000
01010000
00001010
,
00000201
00000000
00000000
00000010
00000000
00000000
00000001
00000000
,
00000010
00000000
00000000
00001000
00000000
00000000
00000010
00000000
,
00000301
00000000
00000101
00000000
00000010
00001000
00000001
00000000
,
00000100
00000010
00001000
00000100
00010000
00001000
00100000
00010000
,
02010000
00000000
00000000
00100000
00000000
00000000
10000000
00000000
,
00100000
00000000
00000000
00001000
00000000
00000000
00010000
00000000
,
03100000
00000000
01100000
00000000
01000000
00010000
10000000
00000000
,
01000000
00100000
00010000
01000000
00001000
00010000
00000010
00000100
,
00000102
00000000
00000100
00002000
00000003
00003100
00000010
00000100
,
00020100
00000000
00000100
00002000
00030000
01003000
00100000
10000000
,
20010000
00000000
01000000
00020000
30000000
01030000
00100000
01000000
,
10020000
00000000
01000000
20000000
00030000
30010000
10000000
01000000
,
00100000
00010000
00100000
00010000
00100000
00001000
00100000
00001000
,
00010000
00001000
00010000
00001000
00010000
00000100
00010000
00000100
,
00000010
00000001
00000010
00000001
00001000
00000001
00000100
00001000
,
00010000
00000000
00000000
00000000
00100000
00000000
00000000
00000000
10000000
00000000
00000000
00000000
01000000
00000000
00000000
00000000
20020000
30030000
00000000
00000000
00000000
00000000
00000000
00000000
10000000
00000000
00000000
00000000
00010000
00000000
00000000
00000000
,
01000000
00100000
10000000
00010000
01000000
00001000
00100000
00010000
,
01000000
00001000
00010000
00000100
00000010
00000001
00001000
00000100
,
00000010
00000001
00000100
00000010
00001000
00000001
00000100
00000010
,
00010000
00000100
00001000
00000010
00010000
00001000
00100000
00010000
,
10000000
00100000
01000000
00010000
00100000
01000000
10000000
00010000
,
01000000
00100000
00010000
00001000
00000100
00000010
00001000
00000001
,
00000010
00000100
00001000
00000001
00000010
00001000
00010000
01000000
,
00100000
10000000
00010000
01000000
10000000
00010000
10010000
00010000
,
10000000
00100000
01000000
00001000
00010000
00000100
00001100
00001000
,
00000010
00000100
00000001
00000010
00001000
00000010
00000011
00000001
,
00000010
00000100
00000001
00000100
00001000
00000100
00010100
00000100
,
00010000
00001000
00100000
00001000
00100000
00001000
00101000
00100000
,
00010000
00100000
00010000
00000000
10000000
00000000
00100000
00000000
01000000
00010000
01000000
00000000
00001000
00000000
00010000
00000000
,
00000010
00000100
00000010
00000000
00001000
00000000
00000100
00000000
00010000
00001000
00010000
00000000
00001000
00000000
01000000
00000000
,
00100000
01000000
00100000
00000000
10000000
00000000
01000000
00000000
00100000
00010000
00100000
00000000
00001000
00000000
00010000
00000000
,
00000010
00001000
00000010
00000000
00000100
00000000
00000001
00000000
00000010
00000000
00000010
00000000
00000100
00000100
00000000
00000000
,
00000000
00000000
01000000
01000000
00000000
00000100
00000100
00000000
00000000
00100000
00100000
00000000
00000010
00000010
00000000
00000000
;
