#VERSION:0.83;
#TITLE:GRADIUSIC CYBER (AMD G5 MIX);
#SUBTITLE:;
#ARTIST:BIG-O feat. TAKA;
#TITLETRANSLIT:;
#SUBTITLETRANSLIT:;
#ARTISTTRANSLIT:;
#GENRE:;
#CREDIT:;
#MUSIC:GRADIUSIC CYBER (AMD G5 MIX).mp3;
#BANNER:GRADIUSIC CYBER (AMD G5 MIX).png;
#BACKGROUND:GRADIUSIC CYBER (AMD G5 MIX)-bg.png;
#CDTITLE:;
#SAMPLESTART:49.535;
#SAMPLELENGTH:12.000;
#SELECTABLE:YES;
#OFFSET:-0.035;
#BPMS:0.000=160.000;
#STOPS:;
#SPEEDS:0.000=1.000=0.000=0;
#SCROLLS:0.000=1.000,
32.500=4.000,
34.000=3.800,
34.125=3.600,
34.250=3.400,
34.375=3.200,
34.500=3.000,
34.625=2.500,
34.750=2.000,
34.875=1.500,
35.000=1.000,
35.125=0.900,
35.250=0.800,
35.375=0.700,
35.500=0.600,
35.625=0.500,
35.750=0.400,
35.875=0.300,
36.000=1.000
;
#TICKCOUNTS:0.000=0;
#TIMESIGNATURES:0.000=4=4;
#COMBOS:0.000=1;
#DISPLAYBPM:160.000;
#BGCHANGES:;
#FGCHANGES:;

//--------------- dance-single - HellKiteChaos ----------------
#NOTEDATA:;
#STEPSTYPE:dance-single;
#DESCRIPTION:HellKiteChaos;
#DIFFICULTY:Challenge;
#METER:16;
#RADARVALUES:0,0,0,0,0;
#NOTES:
0000
0000
0000
0000
,
0000
0000
0000
0000
,
0000
0000
0000
0000
,
0000
0000
0000
0000
,
1000
0000
1000
0000
0100
0000
0000
0010
0000
0001
1000
0000
1001
0000
0000
0000
,
0001
0000
0001
0000
0100
0000
0000
0010
0000
1000
0001
0000
1000
0000
0100
0010
,
0001
0000
1000
0000
0100
0000
0000
0010
0000
0100
1000
0000
1001
0000
0000
0000
,
0001
0000
0100
0000
0010
0100
0000
0100
0000
0010
1000
0000
0001
0000
1001
0000
,
0000
2002
0000
0000
0000
0000
3003
0000
,
1000
0000
1000
0000
0010
0000
0100
0010
0000
0100
0001
0000
1000
0000
0001
0000
,
0010
0000
0100
1000
0000
0000
0001
0100
0000
0100
0001
0000
1000
0000
0001
0100
,
0010
0000
1000
0010
0000
0000
0100
0010
0000
0010
0100
0000
0001
0000
1000
0010
,
1000
0000
0010
0100
0000
0000
0001
0100
0000
0100
0001
0000
1000
0000
0010
0100
,
0010
0000
1000
0100
0000
1000
0010
1000
0010
0000
0100
0010
0100
0000
0001
1000
,
0000
0000
0001
0010
0000
0010
0001
0000
1000
0000
0100
0010
0100
0010
0100
1000
,
0001
0000
0100
0010
0000
0010
0100
0000
0001
0000
0000
1000
0001
0000
1000
0100
,
0000
0000
0000
0010
0001
0000
1000
0100
0000
1000
0001
1000
0001
1000
0001
1000
,
0001
0000
1000
0010
0000
0010
1000
0000
0001
0000
0000
0100
0010
0000
1000
0010
,
0000
0100
0010
0100
0000
0001
1000
0000
0001
0000
0000
1000
0100
0000
0010
0001
,
0000
0000
0010
0100
0000
0010
0001
0000
1000
0000
0000
0001
1000
0000
0000
0000
,
0001
0000
0100
0010
0000
0010
1000
0000
0001
0000
1000
0100
1000
0000
1000
0001
,
0000
0000
1000
0010
0000
1000
0100
0000
0100
0000
0010
0001
0010
0000
0001
1000
,
0000
0000
0010
0100
0000
0001
1000
0001
1000
0000
0000
0000
0100
0000
0010
0001
,
0000
0000
1000
0100
0000
1000
0100
0000
0010
0000
0000
0001
1000
0000
0001
1000
,
0000
0000
0010
0100
0000
0001
0100
0000
0010
0000
0000
0100
0001
0000
0000
0000
,
1000
0000
0100
0001
0000
0100
1000
0000
1000
0000
0000
0001
0100
0000
0010
1000
,
0000
0000
0010
0100
0000
1000
0100
0000
0100
0000
0000
0010
1000
0000
0001
0010
,
0000
0000
0100
0010
0000
0100
0001
0000
0100
0000
0000
0100
0010
0000
0100
1000
,
0000
0000
0010
1000
0000
0001
0100
0000
0100
0000
0000
0010
1000
0100
0010
0001
,
1000
0000
0001
0010
0000
0001
0100
0000
0100
0000
0000
0010
1000
0000
0001
0010
,
0000
0000
0100
0010
0000
0100
1000
0000
0001
0000
0000
0100
0010
0000
1000
0001
,
0000
0000
0100
0010
0000
1000
0010
0000
0100
0000
0000
0001
0100
0000
0001
1000
,
0001
0010
0100
0010
0001
1000
0100
0010
0100
1000
0010
0100
0010
1000
0100
0010
,
0001
0000
0010
1000
0000
0010
0001
0000
0001
0000
0000
1000
0010
0000
0100
0001
,
0000
0000
0100
0010
0000
0001
0010
0000
0010
0000
0000
0100
0001
0000
1000
0100
,
0000
0000
0010
0100
0000
0010
1000
0000
0010
0000
0000
0010
0100
0000
0010
0001
,
0000
0000
0100
0001
0000
1000
0010
0000
0010
0000
0000
0100
0001
0010
0100
1000
,
0001
0000
1000
0100
0000
1000
0010
0000
0010
0000
0000
0100
0001
0000
1000
0100
,
0000
0000
0010
0100
0000
0010
0001
0000
1000
0000
0000
0010
0100
0000
0001
1000
,
0000
0000
0010
0100
0000
0001
0100
0000
0010
0000
0000
1000
0010
0000
1000
0000
,
0001
0010
0001
0100
0001
0000
0100
0001
0010
0001
0100
0000
0010
0000
0010
0000
,
0000
0000
0000
0110
0000
0000
1010
0000
0000
1001
0000
0000
1100
0000
0000
0000
,
1000
0010
1000
0100
1000
0000
0100
1000
0010
1000
0100
0000
0000
0000
0000
0000
,
0001
0010
0100
0010
0001
0000
0100
0010
0100
0001
0010
0000
0000
0000
0000
0000
,
0100
1000
0010
1000
0100
0000
0010
0100
1000
0010
1000
0000
0010
0000
0010
0000
,
0000
0000
0000
0110
0000
0000
0101
0000
0000
1001
0000
0000
1100
0000
0000
0000
,
0100
1000
0010
1000
0100
0000
0010
0001
0100
0001
0010
0000
0000
0000
0000
0000
,
0100
1000
0010
0100
0001
1000
0100
0010
0001
0100
0010
1000
0000
0000
0000
0000
,
0100
0000
0010
0001
0010
0000
0000
0100
0000
0000
1000
0001
0000
1000
0100
1000
,
0010
0000
1000
0010
1000
0000
0000
0001
0000
0000
0100
0010
0000
0100
0001
0010
,
0001
0000
1000
0100
1000
0000
0000
0001
0000
0000
0100
0010
0000
0100
0010
1000
,
0001
0000
0100
0001
0100
0000
0000
0010
0000
0000
1000
0001
0000
1000
0100
1000
,
0001
0000
0010
0100
1000
0000
0000
0001
0000
0000
1000
0010
0000
0100
0010
0100
,
0001
0000
1000
0001
0100
0000
0000
0010
0000
0000
0100
0001
0000
0100
0001
0010
,
0001
0000
0010
0100
1000
0000
0000
0001
0000
0000
0100
0010
0000
0100
0001
1000
,
0010
0000
0100
0001
1000
0000
0000
0001
0000
0000
0010
0001
0000
0010
0100
1000
,
0001
0000
1001
0000
1001
0000
0001
0100
0001
1000
0001
1000
0001
0000
1000
0000
,
0200
0302
0203
2300
3001
0000
1001
0000
,
0110
0000
0110
0000
1000
0000
0001
1000
0100
1000
0001
1000
0001
1000
0100
0000
,
0020
0032
0203
0302
0013
0000
1001
0000
,
0101
0000
1001
0000
1100
0000
1000
0100
1000
0001
1000
0100
1000
0000
0001
0100
,
0002
0203
0320
2030
3002
0000
0013
0110
,
1100
0000
1001
0000
0101
0000
0001
0100
0001
1000
0001
0100
0001
1000
0001
1000
,
0001
0000
0000
0000
0000
0000
0000
0000
1001
0000
0000
1100
0000
0101
0000
0000
,
2002
0000
0000
0000
,
0000
0000
3003
0000
;

//--------------- dance-double - HellKiteChaos ----------------
#NOTEDATA:;
#STEPSTYPE:dance-double;
#DESCRIPTION:HellKiteChaos;
#DIFFICULTY:Challenge;
#METER:16;
#RADARVALUES:0,0,0,0,0;
#NOTES:
00000000
00000000
00000000
00000000
,
00000000
00000000
00000000
00000000
,
00000000
00000000
00000000
00000000
,
00000000
00000000
00000000
00000000
,
00001000
00000000
00010000
00000000
00001000
00000000
00000000
00100000
00000000
00010000
01000000
00000000
01010000
00000000
00000000
00000000
,
01000000
00000000
00001000
00000000
00010000
00000000
00000000
00000010
00000000
00001000
00000100
00000000
00001100
00000000
00000100
00010000
,
00001000
00000000
00100000
00000000
01000000
00000000
00000000
00100000
00000000
01000000
10000000
00000000
10010000
00000000
00000000
00000000
,
00010000
00000000
01000000
00000000
00001000
00100000
00000000
00100000
00000000
00001000
00010000
00000000
00000100
00000000
00000110
00000000
,
00000000
00002002
00000000
00000000
00000000
00000000
00003003
00000000
,
00001000
00000000
00000010
00000000
00000100
00000000
00000001
00000100
00000000
00000001
00001000
00000000
00000001
00000000
00000010
00000000
,
00001000
00000000
00010000
01000000
00000000
00000000
10000000
00010000
00000000
01000000
00100000
00000000
10000000
00000000
00010000
10000000
,
00010000
00000000
00100000
01000000
00000000
00000000
00010000
00001000
00000000
00000010
00000100
00000000
00001000
00000000
00000001
00001000
,
00000001
00000000
00000100
00000010
00000000
00000000
00000010
00001000
00000000
00001000
00000100
00000000
00010000
00000000
01000000
00100000
,
01000000
00000000
10000000
00010000
00000000
10000000
00100000
10000000
00100000
00000000
01000000
00100000
01000000
00000000
00010000
10000000
,
00000000
00000000
01000000
00010000
00000000
00010000
00001000
00000000
00000010
00000000
00000001
00000010
00000001
00000010
00000100
00001000
,
00000001
00000000
00000100
00000010
00000000
00000010
00001000
00000000
00000001
00000000
00000000
00001000
00000100
00000000
00000010
00000000
,
00000001
00000000
00000100
00000010
00010000
00000000
00001000
00000000
00000000
01000000
00001000
01000000
00001000
01000000
00100000
01000000
,
00100000
00000000
10000000
00100000
00000000
00100000
10000000
00000000
00020000
00000000
00030000
01000000
00100000
00000000
10000000
00100000
,
00000000
01000000
00001000
01000000
00000000
00010000
00100000
00000000
00002000
00000000
00003000
00000100
00000010
00000000
00001000
00000100
,
00000000
00000000
00000010
00000100
00000000
00000100
00001000
00000000
00000002
00000000
00000003
00000100
00000010
00000000
00000000
00000000
,
00010000
00000000
00100000
01000000
00000000
00100000
10000000
00000000
00010000
00000000
10000000
01000000
10000000
00000000
00010000
01000000
,
00000000
00000000
01000000
00100000
00000000
10000000
01000000
00000000
01000000
00000000
00100000
00001000
00100000
00000000
00001000
01000000
,
00000000
00000000
00100000
01000000
00000000
01000000
00001000
00010000
00002000
00000000
00003000
00000000
00010000
00000000
00000100
00000010
,
00000000
00000000
00000001
00001000
00000000
00001000
00000100
00000000
00000010
00000000
00000000
00000001
00001000
00000000
00000001
00001000
,
00000000
00000000
00000010
00010000
00000000
00001000
00100000
00000000
01000000
00000000
00000000
01000000
10000000
00000000
00000000
00000000
,
10000000
00000000
01000000
00100000
00000000
00001000
00010000
00000000
00000020
00000000
00000030
00001000
00000200
00000000
00100300
01000000
,
00000000
00000000
00100000
00010000
00000000
10000000
01000000
00000000
02000000
00000000
03000000
00100000
00020000
00000000
00030010
00000100
,
00000000
00000000
00001000
00000001
00000000
00001000
00000010
00000000
00000200
00000000
00000300
00001000
01000000
00000000
00100000
10000000
,
00010000
00000000
00100000
10000000
00000000
00010000
01000000
00000000
01000000
00000000
00000000
00100000
00010000
01000000
00010000
01000000
,
00100000
00000000
00010000
00100000
00000000
10000000
00010000
00000000
01000000
00000000
00000000
00100000
10000000
00000000
00010000
00100000
,
00000000
00000000
01000000
00100000
00000000
01000000
10000000
00000000
00010000
00000000
00000000
01000000
00001000
00000000
00000100
00000010
,
00000000
00000000
00001000
00000001
00000000
00001000
00000100
00000000
00000010
00000000
00000000
00000001
00001000
00000000
00000001
00000100
,
00000010
00001000
00000010
00010000
00000010
00001000
00000100
00010000
00001000
01000000
00100000
10000000
01000000
00100000
00010000
10000000
,
01000000
00000000
00100000
10000000
00000000
00100000
00010000
00000000
00010000
00000000
00000000
10000000
00010000
00000000
01000000
00001000
,
00000000
00000000
00010000
00000100
00000000
00001000
00000010
00000000
00100000
00000000
00000000
01000000
00100000
00000000
00010000
01000000
,
00000000
00000000
00100000
01000000
00000000
00100000
10000000
00000000
00010000
00000000
00000000
00100000
01000000
00000000
00010000
00000100
,
00000000
00000000
00000010
00000001
00000000
00001000
00000010
00000000
00000010
00000000
00000000
00001000
00000010
00000100
00000001
00000010
,
00000100
00000000
00010000
00000100
00000000
00001000
00000010
00000000
00000100
00000000
00000000
00000001
00000100
00000000
00000010
00001000
,
00000000
00000000
00100000
01000000
00000000
00100000
10000000
00000000
10000000
00000000
00000000
00100000
01000000
00000000
00010000
10000000
,
00000000
00000000
00100000
01000000
00000000
00001000
01000000
00000000
00010000
00000000
00000000
10000000
00100000
00000000
10000000
00000000
,
00001000
00100000
00001000
01000000
00001000
00000000
01000000
00001000
00100000
00001000
01000000
00000000
00100000
00000000
00100000
00000000
,
00000000
00000000
00000000
01100000
00000000
00000000
10100000
00000000
00000000
01010000
00000000
00000000
00001010
00000000
00000000
00000000
,
00010000
00000010
00010000
00000100
00010000
00000000
00000010
00010000
00000100
00010000
00000010
00000000
00000000
00000000
00000000
00000000
,
00010000
00000010
00000100
00000010
00010000
00000000
00001000
00100000
01000000
00100000
00001000
00000000
00000000
00000000
00000000
00000000
,
00010000
00000100
00001000
00000010
00010000
00000000
00001000
00100000
00010000
01000000
00001000
00000000
00100000
00000000
00100000
00000000
,
00000000
00000000
00000000
00110000
00000000
00000000
11000000
00000000
00000000
00110000
00000000
00000000
00001100
00000000
00000000
00000000
,
00000100
00010000
00000010
00010000
00000100
00000000
00010000
00000010
00010000
00000100
00010000
00000000
00000000
00000000
00000000
00000000
,
00010000
00000100
00000010
00000001
00000100
00000010
00010000
00001000
00100000
01000000
10000000
00010000
01000000
00000000
00000000
00000000
,
01000000
00000000
00100000
01000000
00100000
00000000
00000000
01000000
00000000
00000000
00001000
00000000
00000000
00010000
00001000
00010000
,
00000100
00000000
00000010
00000100
00000010
00000000
00000000
00000001
00000000
00000000
00001000
00000010
00000000
00000100
00000001
00001000
,
00000100
00000000
00000010
00000001
00001000
00000000
00000000
00000100
00000000
00000000
00010000
00001000
00000000
01000000
00100000
10000000
,
00010000
00000000
01000000
00010000
10000000
00000000
00000000
01000000
00000000
00000000
10000000
00010000
00000000
10000000
01000000
10000000
,
00010000
00000000
00100000
00001000
00010000
00000000
00000000
00001000
00000000
00000000
00010000
00000010
00000000
00000100
00000010
00000100
,
00000001
00000000
00001000
00000001
00000100
00000000
00000000
00000010
00000000
00000000
00001000
00000100
00000000
00010000
00001000
00100000
,
01000000
00000000
00100000
01000000
10000000
00000000
00000000
00010000
00000000
00000000
01000000
00100000
00000000
01000000
00010000
10000000
,
00100000
00000000
01000000
00001000
00100000
00000000
00000000
01000000
00000000
00000000
00100000
00010000
00000000
00100000
01000000
10000000
,
00010000
00000000
01010000
00000000
01000000
00000000
00001000
01000000
00001000
10000000
00001000
00100000
00001000
00000000
00100000
00000000
,
02000000
03020000
00032000
00003020
00000130
00000000
00001001
00000000
,
00000101
00000000
00001010
00000000
00000010
00000000
00001000
00000010
00010000
00000010
00010000
00001000
00010000
00000100
00001000
00000100
,
00000020
00000032
00002003
00003200
00000310
00000000
00000011
00000000
,
00001100
00000000
00010100
00000000
00011000
00000000
00001000
00100000
00010000
00100000
00010000
10000000
01000000
00100000
00010000
01000000
,
00020000
02030000
03200000
20300000
30020000
00000000
00130000
01100000
,
11000000
00000000
10010000
00000000
01010000
00000000
00001000
01000000
00010000
01000000
00001000
00100000
00010000
00100000
00001000
01000000
,
00100000
00000000
00000000
00000000
00000000
00000000
00000000
00000000
10010000
00000000
00000000
11000000
00000000
01010000
00000000
00000000
,
00020200
00000000
00000000
00000000
,
00000000
00000000
00030300
00000000
;
