#TITLE:FURUHATA'S THEME;
#SUBTITLE:;
#ARTIST:C.J.Crew feat.Sedge;
#TITLETRANSLIT:;
#SUBTITLETRANSLIT:;
#ARTISTTRANSLIT:;
#GENRE:;
#CREDIT:;
#MUSIC:FURUHATA'S THEME.mp3;
#BANNER:FURUHATA'S THEME.png;
#BACKGROUND:FURUHATA'S THEME-bg.png;
#CDTITLE:;
#SAMPLESTART:11.319;
#SAMPLELENGTH:9.176;
#SELECTABLE:YES;
#OFFSET:-1.437;
#BPMS:0.000=170.000;
#STOPS:;
#DISPLAYBPM:170.000;
#BGCHANGES:;
#FGCHANGES:;

//--------------- dance-single - HellKiteChaos ----------------
#NOTES:
     dance-single:
     HellKiteChaos:
     Challenge:
     14:
     0,0,0,0,0:
0000
0000
0000
0000
,
0000
0000
0000
0000
,
0000
0000
0000
0000
,
0001
0000
0100
0000
0010
0000
1000
0000
0010
0000
0100
0000
,
0001
0000
0000
0000
0010
0000
0000
0000
0100
0000
0000
0000
2000
0000
0000
0001
0000
0000
3001
0000
0000
0000
0000
0000
,
1000
0000
0001
0100
0001
0000
1000
0100
1000
0000
0001
0010
0001
0000
0010
0001
,
0100
0010
0100
0010
0100
1001
1001
0000
,
1000
0000
0010
0000
0100
0000
0001
0000
0100
0000
0010
0000
,
1000
0000
0000
0000
0100
0000
0000
0000
0010
0000
0000
0000
0002
0000
0000
1000
0000
0000
1003
0000
0000
0000
0000
0000
,
0001
0000
1000
0100
1000
0000
0001
0100
0001
0000
1000
0010
1000
0000
0010
1000
,
0100
0010
0100
0010
0100
1001
1001
0000
,
2000
0000
0000
3100
0000
0000
0010
0000
0002
0000
0000
0103
0000
0000
0010
0000
,
2000
0000
0000
3100
0000
0000
0010
0000
0002
0000
0000
0103
0000
0000
0010
0000
,
2000
0000
0000
3001
0000
0000
0010
0000
0002
0000
0000
1003
0000
0000
0010
0000
,
2000
0000
0000
3001
0000
0000
0010
0000
0002
0000
0000
1003
0000
0000
0100
0000
,
2000
0000
0000
3001
0000
0000
0100
0000
0002
0000
0000
1003
0000
0000
0100
0000
,
2000
0000
0000
3001
0000
0000
0100
0000
0002
0000
0000
1003
0000
0000
0100
0000
,
0020
0000
0000
0031
0000
0000
1000
0000
0020
0000
0000
0130
0000
0000
0001
0000
,
0020
0000
0000
0130
0000
0000
1000
0000
0001
1000
0001
1000
0001
0000
0100
0000
,
0010
0000
1000
0000
0001
0000
0010
0000
0100
0000
1000
0000
,
0001
0000
0100
0000
0010
0000
1000
0000
0001
0000
0010
0000
,
0100
1000
0100
0010
0100
1000
0100
0010
,
0001
0100
0010
0100
0001
0100
0010
0100
,
0101
0000
0001
0000
1000
0000
0001
0000
1000
0000
0100
0000
,
0010
0000
0001
0000
0100
0000
0010
0000
1000
0000
0100
0000
,
0010
0001
0010
0100
0010
0001
0010
0100
,
1000
0010
0100
0010
2002
0000
0000
3003
,
1000
0100
0000
0100
0010
0100
1000
0001
,
0200
0010
0310
0000
0110
0000
1001
0000
,
0001
0010
0000
0100
0010
0001
0010
0100
,
2000
0001
0001
0000
0100
0000
3001
0000
,
0100
0010
0100
0001
0010
0100
1000
0001
,
0200
0010
0310
0000
0101
0000
1010
0000
,
1000
0010
0100
0001
1000
0100
0010
0001
,
1000
0100
0001
0100
1000
0010
0100
0010
,
1000
0010
0100
0001
1000
0010
1000
0010
,
1000
0100
0010
0001
1000
0100
1000
0100
,
0010
0001
0100
0010
1000
0001
1000
0001
,
0100
0010
1000
0100
0010
0100
0010
0100
,
0001
0100
0010
0100
1000
0001
1000
0001
,
0100
0010
0100
1000
0100
0010
0100
0001
,
1000
0100
0001
1000
0001
0100
1000
0001
,
1000
0001
0100
1000
0001
1000
0100
0001
,
1000
0100
0010
0001
0100
0001
0010
0100
,
1000
0010
0100
0010
1000
0100
0001
1000
,
0010
0001
1000
0001
1000
0010
0001
1000
,
0100
0001
1000
0001
1000
0100
0010
0001
,
0100
0010
0001
0010
0100
0001
0010
0100
,
1000
0010
0100
1000
0100
0010
1000
0100
,
0010
0001
0100
1000
0001
0010
1000
0001
,
1000
0100
0001
1000
0010
0001
0100
0010
,
1000
0000
0010
0000
0100
0000
0001
0000
0100
0000
0010
0000
,
1000
0000
0000
0000
0100
0000
0000
0000
0010
0000
0000
0000
0002
0000
0000
1000
0000
0000
1003
0000
0000
0000
0000
0000
,
0001
0000
1000
0010
1000
0000
0001
0010
0001
0000
1000
0100
1000
0000
0100
1000
,
0010
0100
0010
0100
0010
1001
1001
0000
,
0001
0000
0100
0000
0010
0000
1000
0000
0010
0000
0100
0000
,
0001
0000
0000
0000
0010
0000
0000
0000
0100
0000
0000
0000
2000
0000
0000
0001
0000
0000
3001
0000
0000
0000
0000
0000
,
1000
0000
0001
0010
0001
0000
1000
0010
1000
0000
0001
0100
0001
0000
0100
0001
,
0010
0100
0010
0100
0010
1001
1001
0000
,
0001
0100
0000
1000
0100
0000
0001
0100
,
0020
0100
0100
0130
,
0100
0000
0001
0000
0010
0000
0100
0000
1000
0000
0001
0000
,
1001
0000
0000
0000
1001
0000
0000
0000
0000
0000
0100
0000
0000
0000
0010
1000
,
0001
0000
0000
0000
;

//--------------- dance-double - HellKiteChaos ----------------
#NOTES:
     dance-double:
     HellKiteChaos:
     Challenge:
     14:
     0,0,0,0,0:
00000000
00000000
00000000
00000000
,
00000000
00000000
00000000
00000000
,
00000000
00000000
00000000
00000000
,
00001000
00000000
00010000
00000000
00001000
00000000
00100000
00000000
00010000
00000000
10000000
00000000
,
00100000
00000000
00000000
00000000
01000000
00000000
00000000
00000000
00010000
00000000
00000000
00000000
20000000
00000000
00000000
00010000
00000000
00000000
30010000
00000000
00000000
00000000
00000000
00000000
,
10000000
00000000
00100000
01000000
00100000
00000000
01000000
00001000
01000000
00000000
00001000
00010000
00001000
00000000
00000100
00000000
,
00000010
00000100
00000001
00000010
00000100
00000110
00000110
00000000
,
00000010
00000000
00000100
00000000
00001000
00000000
00000100
00000000
00010000
00000000
00000100
00000000
,
00001000
00000000
00000000
00000000
00000010
00000000
00000000
00000000
00000100
00000000
00000000
00000000
00000002
00000000
00000000
00001000
00000000
00000000
00001003
00000000
00000000
00000000
00000000
00000000
,
00000001
00000000
00001000
00000010
00001000
00000000
00000010
00000100
00000010
00000000
00001000
00000001
00001000
00000000
00000100
00000000
,
00010000
00001000
00100000
01000000
10000000
10010000
10010000
00000000
,
10000000
00000000
00000000
01000000
00000000
00000000
00100000
00000000
00010000
00000000
00000000
01000000
00000000
00000000
00100000
00000000
,
10000000
00000000
00000000
01000000
00000000
00000000
00010000
00000000
00001000
00000000
00000000
00000010
00000000
00000000
00000001
00000000
,
00000100
00000000
00000000
00000010
00000000
00000000
00001000
00000000
00000100
00000000
00000000
00000010
00000000
00000000
00000001
00000000
,
00000100
00000000
00000000
00001000
00000000
00000000
00010000
00000000
00001000
00000000
00000000
00010000
00000000
00000000
00001000
00000000
,
00000100
00000000
00000000
00001000
00000000
00000000
00010000
00000000
01000000
00000000
00000000
00010000
00000000
00000000
00001000
00000000
,
00000010
00000000
00000000
00001000
00000000
00000000
00010000
00000000
00100000
00000000
00000000
00010000
00000000
00000000
00001000
00000000
,
00000100
00000000
00000000
00001000
00000000
00000000
00010000
00000000
01000000
00000000
00000000
00010000
00000000
00000000
00001000
00000000
,
00010000
00000000
00001000
00000000
00010000
00000000
00001000
00000000
00010000
00001000
00010000
00001000
00020000
00000000
00000000
00000000
,
00031000
00000000
00010000
00000000
01000000
00000000
10000000
00000000
00010000
00000000
01000000
00000000
,
00100000
00000000
00010000
00000000
00001000
00000000
00000200
00000000
00000000
00000000
00000000
00000000
,
00000310
00001000
00000010
00000100
00000010
00001000
00000010
00000100
,
00000001
00000100
00000010
00000100
00000001
00000100
00000010
00001000
,
00000001
00000000
00000010
00000000
00001000
00000000
00010000
00000000
00001000
00000000
00010000
00000000
,
01000000
00000000
10000000
00000000
00010000
00000000
00200000
00000000
00000000
00000000
00000000
00000000
,
00310000
00100000
01000000
00100000
00010000
00100000
01000000
10000000
,
01000000
00100000
01000000
10000000
01000000
00100000
01000000
10000000
,
00010000
01000000
00000000
00100000
01000000
00010000
10000000
00000000
,
00200000
01000000
01300000
00000000
01010000
00000000
01001000
00000000
,
00010000
00000100
00000000
00010000
00000010
00000100
00000001
00001000
,
00000002
00000100
00000100
00000000
00001000
00000000
00000103
00000000
,
00000100
00000001
00001000
00000100
00000010
00000001
00000100
00000010
,
00002000
00000001
00000001
00000000
00000100
00000000
00003001
00000000
,
00000001
00001000
00000010
00000100
00000010
00001000
00000001
00000010
,
00000100
00000010
00000001
00000000
00000011
00000000
00001100
00000000
,
00000100
00010000
00001000
00010000
00000100
00010000
00001000
00010000
,
00001000
01000000
00010000
01000000
00001000
01000000
00010000
01000000
,
00100000
10000000
00100000
01000000
00100000
10000000
00100000
01000000
,
00010000
10000000
00100000
10000000
00010000
01000000
00100000
10000000
,
00010000
01000000
00001000
01000000
00100000
00010000
00001000
00000100
,
00000010
00001000
00000001
00001000
00000010
00000100
00001000
00010000
,
00100000
01000000
00010000
10000000
00010000
01000000
10000000
01000000
,
00100000
01000000
00001000
00100000
00010000
01000000
00100000
10000000
,
01000000
00010000
00001000
00000010
00000001
00000010
00001000
00000010
,
00000001
00000100
00001000
00010000
00100000
10000000
00100000
00010000
,
00100000
10000000
01000000
00100000
00010000
01000000
00100000
00010000
,
00100000
01000000
00001000
00010000
01000000
00010000
00001000
00010000
,
00000010
00000100
00000010
00001000
00000100
00010000
00001000
00100000
,
00001000
00010000
00000100
00001000
00000010
00000100
00000001
00000100
,
00000010
00000001
00000010
00001000
00000100
00000010
00001000
00000010
,
00000100
00010000
00001000
01000000
00100000
10000000
01000000
00100000
,
00010000
00000000
00100000
00000000
01000000
00000000
00010000
00000000
01000000
00000000
10000000
00000000
,
00010000
00000000
00000000
00000000
10000000
00000000
00000000
00000000
00010000
00000000
00000000
00000000
00020000
00000000
00000000
10000000
00000000
00000000
10030000
00000000
00000000
00000000
00000000
00000000
,
10000000
00000000
00100000
01000000
00100000
00000000
01000000
00001000
01000000
00000000
00001000
00010000
00001000
00000000
00000100
00000000
,
00000010
00000100
00000001
00000010
00000100
00000110
00000110
00000000
,
00000010
00000000
00000100
00000000
00001000
00000000
00000100
00000000
00010000
00000000
00000100
00000000
,
00001000
00000000
00000000
00000000
00000010
00000000
00000000
00000000
00000100
00000000
00000000
00000000
00000002
00000000
00000000
00001000
00000000
00000000
00001003
00000000
00000000
00000000
00000000
00000000
,
00000001
00000000
00001000
00000010
00001000
00000000
00000010
00000100
00000010
00000000
00001000
00000001
00001000
00000000
00000100
00000000
,
00010000
00001000
00100000
01000000
10000000
10010000
10010000
00000000
,
00010000
01000000
00000000
10000000
01000000
00000000
00010000
01000000
,
00200000
01000000
01000000
01300000
,
01000000
00000000
00100000
00000000
00010000
00000000
10000000
00000000
01000000
00000000
00100000
00000000
,
01100000
00000000
00000000
00000000
10010000
00000000
00000000
00000000
00000000
00000000
01010000
00000000
00000000
00000000
01000000
00001000
,
00010000
00000000
00000000
00000000
;
