#VERSION:0.83;
#TITLE:FLASH IN THE NIGHT;
#SUBTITLE:;
#ARTIST:FLASHMAN;
#TITLETRANSLIT:;
#SUBTITLETRANSLIT:;
#ARTISTTRANSLIT:;
#GENRE:;
#CREDIT:;
#MUSIC:FLASH IN THE NIGHT.mp3;
#BANNER:FLASH IN THE NIGHT.png;
#BACKGROUND:FLASH IN THE NIGHT-bg.png;
#CDTITLE:;
#SAMPLESTART:50.200;
#SAMPLELENGTH:12.000;
#SELECTABLE:YES;
#OFFSET:-0.239;
#BPMS:0.000=158.000;
#STOPS:;
#SPEEDS:0.000=1.000=0.000=0;
#SCROLLS:0.000=1.000;
#TICKCOUNTS:0.000=4;
#TIMESIGNATURES:0.000=4=4;
#LABELS:0.000=Song Start;
#COMBOS:0.000=1;
#DISPLAYBPM:158.000;
#ORIGIN:;
#PREVIEWVID:;
#JACKET:;
#CDIMAGE:;
#DISCIMAGE:;
#BGCHANGES:;
#FGCHANGES:;

//--------------- dance-single - HellKiteChaos ----------------
#NOTEDATA:;
#STEPSTYPE:dance-single;
#DESCRIPTION:HellKiteChaos;
#DIFFICULTY:Challenge;
#METER:15;
#RADARVALUES:0,0,0,0,0;
#NOTES:
0000
0000
0000
0000
,
1000
0010
1000
0010
0100
0000
0001
0010
0001
0010
0100
0000
1000
0010
1000
0010
,
0100
0000
0001
0010
0001
0010
0100
0000
1000
0010
0100
0001
1000
0010
0100
0001
,
1000
0100
1000
0100
0010
0000
0001
0100
0001
0100
0010
0000
1000
0100
1000
0100
,
0010
0000
0001
0100
0001
0100
0010
0000
0100
0010
1000
0001
0100
0010
1000
0001
,
0010
0001
0010
0001
0100
0000
0010
1000
0010
1000
0100
0000
0010
0001
0010
0001
,
0100
0000
0010
1000
0010
1000
0100
0000
0010
0001
1000
0100
0010
0001
1000
0001
,
0100
0001
0100
0001
0010
0000
0100
1000
0100
1000
0010
0000
0100
0001
0100
0001
,
0010
0100
1000
0001
0010
0100
1000
0010
0100
0010
0100
0001
1000
0001
1000
0100
,
0010
0001
1000
0100
0010
0100
1000
0001
,
0010
0100
1000
0001
0010
0001
1000
0100
,
0010
0001
1000
0001
0010
0001
1000
0100
,
0010
0001
1000
0100
0010
0100
1000
0001
,
2000
0100
3100
0020
0001
0031
0200
0010
,
0310
0100
0001
1000
0010
0100
0001
1000
,
0002
0010
0013
0200
1000
1300
0002
0100
,
0103
0010
1000
0010
0100
0010
1000
0010
0100
0001
0100
0010
0100
0001
0100
0010
,
1000
0010
1000
0001
0100
0001
1000
0001
,
0100
0001
1000
0010
1000
0010
0100
0010
,
1000
0001
0100
0001
1000
0010
1000
0001
,
0100
0010
0100
0001
1000
0010
0100
0001
,
2000
0100
3100
0020
0001
0031
0200
0010
,
0310
0100
0010
0100
0001
0010
0100
1000
,
0002
0100
0103
0020
1000
1030
0200
0010
,
0310
0000
0100
0000
0010
0000
0001
0000
1000
0100
0010
0100
1000
0001
0010
0001
,
1000
0000
1000
1100
0000
0100
0110
0000
,
0010
0001
0100
0010
1000
0100
0010
0001
,
0101
0000
0100
0110
0000
0010
1010
0000
,
1000
0001
0100
0001
1000
0010
0100
0010
,
1010
0000
1000
1001
0000
0001
0101
0000
,
0100
0010
0100
0010
1000
0001
0100
0010
,
1010
0000
1100
1100
0000
0101
0102
0000
,
1000
1003
0001
1000
1000
1000
1001
0000
,
0001
0100
1000
0100
0100
0001
0010
1000
,
0010
0010
0001
0001
1000
0100
0010
0001
,
1000
0100
1000
0100
1000
0000
0000
0000
0001
0100
0001
0100
0001
0000
0000
0000
,
1000
0010
0100
0001
0010
0010
0010
0010
,
0100
1000
0100
0001
0001
0100
1000
0010
,
0001
0001
0010
0010
1000
0001
0100
0010
,
1000
0001
1000
0001
0100
0000
0000
0000
0010
0100
0010
0100
0001
0000
1000
0000
,
0100
0000
0100
0000
0010
0000
0001
0000
0100
0000
0100
0010
0100
0010
0100
0010
,
1000
0010
0001
0010
0010
1000
0100
0001
,
0100
0100
1000
1000
0001
0010
0100
1000
,
0001
0010
0001
0010
0001
0000
0000
0000
1000
0010
1000
0010
1000
0000
0000
0000
,
0001
0100
0010
1000
0100
0100
0100
0100
,
0010
0001
0010
1000
1000
0010
0001
0100
,
1000
1000
0100
0100
0001
1000
0010
0100
,
0001
1000
0001
1000
0010
0000
0000
0000
0100
0010
0100
0010
1000
0000
0001
0000
,
1001
0000
1100
0101
,
0001
0100
0001
0100
0010
0000
1000
0100
1000
0100
0010
0000
0001
0100
0001
0100
,
0010
0000
1000
0100
1000
0100
0010
0000
0001
0100
0010
1000
0001
0100
0010
1000
,
0001
0010
0001
0010
0100
0000
1000
0010
1000
0010
0100
0000
0001
0010
0001
0010
,
0100
0000
1000
0010
1000
0010
0100
0000
0010
0100
0001
1000
0010
0100
0001
1000
,
0100
1000
0100
1000
0010
0000
0100
0001
0100
0001
0010
0000
0100
1000
0100
1000
,
0010
0000
0100
0001
0100
0001
0010
0000
0100
1000
0001
0010
0100
1000
0001
1000
,
0010
1000
0010
1000
0100
0000
0010
0001
0010
0001
0100
0000
0010
1000
0010
1000
,
0100
0010
0001
1000
0100
0010
0001
0100
0010
0100
0010
1000
0001
1000
0001
0010
,
0200
0000
0000
0000
,
0000
0000
0300
0000
;

//--------------- dance-double - HellKiteChaos ----------------
#NOTEDATA:;
#STEPSTYPE:dance-double;
#DESCRIPTION:HellKiteChaos;
#DIFFICULTY:Challenge;
#METER:15;
#RADARVALUES:0,0,0,0,0;
#NOTES:
00000000
00000000
00000000
00000000
,
00001000
00000000
00010000
00001000
00010000
00000000
00001000
00000000
01000000
00010000
01000000
00000000
00100000
00000000
10000000
00100000
,
10000000
00000000
00010000
00000000
01000000
00001000
01000000
00000000
00001000
00010000
00000100
00010000
00000010
00010000
00000100
00010000
,
00001000
00000000
00100000
00010000
00100000
00000000
00001000
00000000
00010000
00000010
00010000
00000000
00001000
00000000
01000000
00010000
,
01000000
00000000
00001000
00000000
00010000
00000100
00010000
00000000
00001000
00010000
00001000
00100000
00001000
01000000
00001000
00100000
,
00001000
00000000
00010000
00000100
00010000
00000000
00001000
00000000
00100000
00010000
00100000
00000000
00001000
00000000
01000000
00001000
,
01000000
00000000
00010000
00000000
10000000
00010000
10000000
00000000
00100000
10000000
00010000
10000000
01000000
00100000
00010000
10000000
,
00010000
00000000
01000000
00001000
01000000
00000000
00100000
00000000
10000000
00100000
10000000
00000000
00010000
00000000
01000000
00010000
,
01000000
00100000
10000000
00010000
01000000
00001000
00010000
00001000
00100000
00001000
00010000
00001000
00010000
00000100
00010000
00000100
,
00010000
00000100
00000010
00000001
00010000
00000100
00000010
00000001
,
00000100
00000010
00010000
00000001
00000100
00000010
00010000
00000100
,
00001000
00000010
00010000
00000100
00001000
00000010
00010000
00001000
,
00010000
00010000
00001000
00001000
01000000
00100000
01000000
00100000
,
20000000
01000000
31000000
00200000
00010000
00310000
02000000
00001000
,
03001000
01000000
00100000
01000000
00001000
00010000
00000100
00010000
,
00000200
00001000
00001300
00000002
00000010
00000013
00000200
00001000
,
00001300
00000100
00010000
00000100
00001000
00000100
00010000
00001000
00100000
00001000
00010000
00001000
00100000
00001000
00010000
00001000
,
01000000
00100000
10000000
00001000
01000000
00100000
10000000
00001000
,
01000000
00100000
10000000
01000000
00100000
00001000
10000000
01000000
,
00100000
00001000
01000000
00010000
00100000
00001000
01000000
00010000
,
00100000
00001000
00010000
00000100
00000010
00000001
00000100
00000010
,
00002000
00000001
00003001
00000200
00000010
00000310
00020000
00001000
,
00031000
00010000
00001000
01000000
00100000
10000000
01000000
00100000
,
00020000
10000000
10030000
02000000
00100000
03100000
00020000
10000000
,
10030000
00000000
01000000
00000000
00100000
00000000
00010000
00000000
10000000
01000000
00100000
01000000
00100000
00001000
00100000
00001000
,
01000000
00010000
01000000
00001000
00000000
00001000
00100000
00001000
,
00010000
00000010
00010000
00000010
00000100
00000010
00000100
00000001
,
00000100
00000010
00000000
00001000
00000010
00001000
00000010
00000100
,
00000000
00000000
00000010
00000000
00000100
00000000
00001000
00000000
00000100
00000000
00000010
00000000
00010000
00001000
00010000
00001000
,
00100000
01000000
10000000
01000000
00000000
00010000
01000000
10000000
,
01000000
00100000
00000000
01000000
00100000
00001000
00010000
00001000
,
01000000
00100000
10000000
01000000
00000000
00100000
00001000
00010000
,
00001000
00010000
00000100
00000010
00000001
00000100
00000110
00000000
,
00000010
00010000
00000010
00001000
00000010
00010000
00000100
00010000
,
00001000
00100000
00001000
01000000
00100000
10000000
01000000
00100000
,
00010000
01000000
00010000
01000000
00010000
00000000
00000000
00000000
10000000
01000000
10000000
01000000
10000000
00000000
00000000
00000000
,
10000000
00100000
01000000
00010000
00100000
00100000
00100000
00100000
,
00001000
00010000
00000100
00010000
00001000
01000000
00001000
00010000
,
00000010
00000100
00000001
00000010
00000100
00001000
00000001
00000100
,
00000010
00000100
00000010
00000100
00000010
00000000
00000000
00000000
00001000
00000001
00001000
00000001
00001000
00000000
00000001
00000000
,
00001001
00000000
00011000
00000000
10010000
00000000
00011000
00001000
,
00100000
00100000
01000000
00100000
00100000
00010000
01000000
00010000
,
01000000
01000000
10000000
10000000
00010000
00100000
10000000
00010000
,
10000000
00010000
10000000
00010000
10000000
00000000
00000000
00000000
00100000
10000000
00100000
10000000
00010000
00000000
10000000
00000000
,
00010000
01000000
00100000
10000000
01000000
01000000
01000000
01000000
,
00100000
01000000
00010000
00001000
00000010
00000100
00000010
00000001
,
00000100
00000010
00001000
00000100
00000010
00000001
00000100
00000010
,
00010000
00000010
00010000
00000010
00010000
00000000
00000000
00000000
00001000
00010000
00001000
00010000
00001000
00000000
01000000
00000000
,
00100000
01000000
01010000
01001000
,
00001000
00000000
00010000
00001000
00010000
00000000
00001000
00000000
01000000
00010000
01000000
00000000
00100000
00000000
10000000
00100000
,
10000000
00000000
00010000
00000000
01000000
00001000
01000000
00000000
00001000
00010000
00000100
00010000
00000010
00010000
00000100
00010000
,
00001000
00000000
00100000
00010000
00100000
00000000
00001000
00000000
00010000
00000010
00010000
00000000
00001000
00000000
01000000
00010000
,
01000000
00000000
00001000
00000000
00010000
00000100
00010000
00000000
00001000
00010000
00001000
00100000
00001000
01000000
00001000
00100000
,
00001000
00000000
00010000
00000100
00010000
00000000
00001000
00000000
00100000
00010000
00100000
00000000
00001000
00000000
01000000
00001000
,
01000000
00000000
00010000
00000000
10000000
00010000
10000000
00000000
00100000
10000000
00010000
10000000
01000000
00100000
00010000
10000000
,
00010000
00000000
01000000
00001000
01000000
00000000
00100000
00000000
10000000
00100000
10000000
00000000
00010000
00000000
01000000
00010000
,
01000000
00100000
10000000
00010000
01000000
00001000
00010000
00001000
00100000
00001000
01000000
00010000
00100000
00001000
00010000
00000100
,
00000020
00000000
00000000
00000000
,
00000000
00000000
00000030
00000000
;
