#TITLE:Do It Right;
#SUBTITLE:;
#ARTIST:SOTA feat. Ebony Fay;
#TITLETRANSLIT:;
#SUBTITLETRANSLIT:;
#ARTISTTRANSLIT:;
#GENRE:;
#CREDIT:;
#MUSIC:Do It Right.mp3;
#BANNER:Do It Right.png;
#BACKGROUND:Do It Right-bg.png;
#CDTITLE:;
#SAMPLESTART:0.000;
#SAMPLELENGTH:0.000;
#SELECTABLE:YES;
#OFFSET:-0.077;
#BPMS:0.000=135.020;
#STOPS:;
#DISPLAYBPM:135.000;
#BGCHANGES:;
#FGCHANGES:;

//--------------- dance-single - HellKiteChaos ----------------
#NOTES:
     dance-single:
     HellKiteChaos:
     Challenge:
     12:
     0,0,0,0,0:
0000
0000
0000
0000
,
0000
0000
0000
0000
,
1000
0000
0001
0000
0100
0001
0010
0000
,
0100
0100
1000
0001
0101
0100
0110
0000
,
1000
0001
0100
0001
0010
0001
1001
0000
,
0100
1000
0010
1000
1001
0000
0101
0000
,
0010
0001
0100
0000
0010
1000
1100
0000
,
0010
0001
0010
0001
1000
0010
1000
0010
,
0210
0000
0000
0000
0301
0000
0000
0000
1000
0000
0001
0000
0020
0000
0000
0130
,
0000
0000
1000
0000
0100
0000
1000
0000
0100
0000
0010
0000
0002
0000
0000
1003
,
0000
0001
0100
0010
1000
0001
0100
0001
,
1000
0000
0010
0000
1000
0000
0010
0000
1010
0000
0000
0101
0000
0000
1001
0000
,
0000
0000
1000
0000
0002
0000
0000
0000
0100
0000
0000
0000
0023
0000
0000
0130
,
0000
0000
1000
0000
0100
0000
1000
0000
0001
0000
0100
0000
0020
0000
0000
1030
,
0000
0000
1000
0000
0001
0000
0000
0000
0100
0000
0100
0000
0000
0010
1000
0000
,
0001
0000
0010
0000
0100
0000
0010
0000
0110
0000
0000
1100
0000
0000
1001
0000
,
0000
0000
0001
0000
0100
0000
0010
0000
0100
0000
0010
0000
2000
0000
0000
3001
,
0000
0000
0010
0000
0100
0000
0010
0000
0001
0000
1000
0000
0002
0000
0000
0103
,
0000
0010
0100
0100
0001
1000
0010
0010
,
1000
0000
0100
0000
0010
0000
0001
0000
0011
0000
0000
0110
0000
0000
1100
0000
,
0000
0100
2000
0000
3002
0000
0023
0000
,
0130
0000
1000
0000
0001
0000
0100
0000
0020
0000
0000
0000
2030
0000
0000
3001
,
0000
0100
0010
0000
1001
0000
0110
0010
,
0100
0001
1000
0001
0010
0100
1000
0001
,
1000
0100
1000
1000
0001
0100
0001
0001
,
1000
0000
0010
0000
0100
0000
0001
1000
0000
0000
0000
0000
0100
0100
0000
0010
,
0000
0000
0000
0000
0100
0100
0000
0010
0000
0000
0100
0000
0010
0000
0001
0000
,
1001
0000
0000
0110
0000
0000
1001
0000
1000
0000
0010
0000
0100
0000
0001
0000
,
1000
0001
0010
0010
0001
1000
0010
0010
,
0100
0001
0010
0100
1000
0001
1001
0000
,
0100
1000
0010
0000
0100
0001
0010
0100
,
1000
1010
0001
0101
,
0010
0100
0001
0010
0000
0100
1000
0100
,
0010
0100
0010
0001
1000
0010
0010
0100
,
0001
1000
1000
0100
1000
0001
0010
0100
,
1100
0000
0000
0011
0000
0000
1001
0000
1000
0000
0001
0000
1002
0000
1003
0000
,
0100
0000
0000
0000
0010
0100
0000
0100
0000
0000
0010
0000
0100
0000
0010
0000
,
0001
0100
0010
1000
0100
0000
1001
0000
,
0001
0010
1000
0000
0001
0100
1000
0001
,
1001
0101
1010
1100
,
1000
0000
0010
0000
0100
0000
0100
0000
0100
0000
0001
1000
0000
1000
0001
0000
,
0010
0100
0100
0010
0001
0000
1001
0000
,
0001
0100
0010
0010
0010
0100
0001
0010
,
0100
1000
0010
0100
0002
0000
0013
0200
,
0000
1300
0001
0000
0100
0010
1000
0000
,
0001
0010
0100
0010
0002
0000
2003
0000
,
3010
0100
0100
0001
1000
1000
0010
0100
,
0001
0010
0100
1000
0010
0100
0001
0010
,
0200
0000
0000
0000
,
0000
0000
0300
0000
;

//--------------- dance-double - HellKiteChaos ----------------
#NOTES:
     dance-double:
     HellKiteChaos:
     Challenge:
     12:
     0,0,0,0,0:
00000000
00000000
00000000
00000000
,
00000000
00000000
00000000
00000000
,
00001000
00000000
00010000
00000000
01000000
10000000
00100000
00000000
,
01000000
01000000
00010000
00010000
01010000
01000000
01001000
00000000
,
00001000
00010000
00000100
00010000
00000010
00000100
00000101
00000000
,
00000100
00000010
00000100
00000010
00001010
00000000
00001001
00000000
,
00000001
00000100
00000001
00000100
00000010
00001000
00000100
00000000
,
00010000
00001000
00010000
00001000
00200000
00000000
01300000
00000000
,
02100000
00000000
00000000
00000000
13000000
00000000
00000000
00000000
10000000
00000000
00010000
00000000
00200000
00000000
00000000
01300000
,
00000000
00000000
10000000
00000000
01000000
00000000
00100000
00000000
00001000
00000000
00010000
00000000
00002000
00000000
00000000
00003100
,
00000000
00000100
00000010
00000100
00000001
00001000
00000001
00001000
,
00000100
00000000
00000010
00000000
00000001
00000000
00000100
00000000
00001010
00000000
00000000
00010010
00000000
00000000
00011000
00000000
,
00000000
00000000
00001000
00000000
00200000
00000000
00000000
00000000
01000000
00000000
00000000
00000000
00320000
00000000
00000000
01030000
,
00000000
00100000
00010000
00001000
00000020
00000000
00000032
00000000
,
00002003
00000100
00000010
00003200
,
00010300
00000000
00001000
00000000
00010000
00000000
00001000
00000000
00011000
00000000
00000000
00101000
00000000
00000000
01001000
00000000
,
00000000
02000000
00010000
00100000
,
13000000
01000000
00020000
00000000
00100000
00000000
01000000
00000000
,
00130000
00001000
00010000
00000100
00000010
00000001
00001000
00000010
,
00000100
00000000
00001000
00000000
00010000
00000000
00100000
00000000
10000000
00000000
00000000
00010000
00000000
00000000
10010000
00000000
,
00000000
00010000
20000000
00000000
30020000
00000000
00230000
00000000
,
01300000
10000000
00010000
01000000
00200000
00000000
00320000
00000000
,
00032000
00010000
00013000
00000000
00011000
00000000
00000110
00000000
,
00001000
00000001
00001000
00000100
00000010
00001000
00010000
01000000
,
00100000
01000000
10000000
10000000
00100000
01000000
00010000
00010000
,
01000000
00000000
00001000
00000000
00010000
00000000
00001000
00010000
00000000
00000000
00001000
00000000
00010000
00000000
00000100
00000000
,
00000020
00000000
00000130
00000100
00000100
00000010
00000010
00000001
,
00001001
00000000
00000000
00000110
00000000
00000000
00001001
00000000
00000001
00000000
00000100
00000000
00001000
00000000
00010000
00000000
,
00200000
00000000
02300000
00000000
03010000
00100000
01000000
10000000
,
00020000
00000000
02030000
00000000
03001000
00010000
00000100
00000010
,
00000001
00000001
00000100
00000010
00001000
00001000
00000100
00010000
,
00011000
01100000
10010000
00011000
,
00001000
01000000
00001000
00010000
00000100
00010000
00000010
00010000
,
00001000
00100000
01000000
00100000
00001000
00010000
00001000
01000000
,
00100000
00000000
10000000
01000000
00100000
00010000
01000000
00100000
,
01100000
00000000
00000000
10010000
00000000
00000000
10010000
00000000
10000000
00000000
00010000
00000000
10000000
00000000
00001000
00000000
,
00020000
01000000
00032000
00023000
,
00032000
00000100
00023000
00032000
,
00103000
00010000
10000000
01000000
00010000
00001000
00000010
00000001
,
00000011
00001100
00110000
11000000
,
10000000
00000000
00100000
00000000
01000000
00000000
01000000
00000000
01000000
00000000
00010000
10000000
00000000
10000000
00010000
00000000
,
00100000
01000000
00010000
00001000
00000010
00000001
00001001
00000000
,
00001000
00000010
00000010
00000010
00000100
00000001
00000010
00000100
,
00001200
00000000
00020300
00000000
00032000
00000000
00103000
02000000
,
00000000
13000000
00010000
00000000
01000000
00100000
10000000
00000000
,
00010000
00100000
01000000
10000000
00020000
00000000
02030000
00000000
,
03001000
00010000
00000100
00010000
00000010
00001000
00000100
00010000
,
00001000
00100000
00010000
01000000
00100000
10000000
01000000
00010000
,
00200000
00000000
00000000
00000000
,
00000000
00000000
00300000
00000000
;
